<?xml version="1.0" standalone="no"?>
<!DOCTYPE svg PUBLIC "-//W3C//DTD SVG 1.1//EN" "http://www.w3.org/Graphics/SVG/1.1/DTD/svg11.dtd" >
<svg xmlns="http://www.w3.org/2000/svg">
<metadata></metadata>
<defs>
<font id="kleinsemmeringregular" horiz-adv-x="581" >
<font-face units-per-em="2048" ascent="1536" descent="-512" />
<missing-glyph horiz-adv-x="378" />
<glyph horiz-adv-x="0" />
<glyph horiz-adv-x="682" />
<glyph unicode=" "  horiz-adv-x="378" />
<glyph unicode="&#x09;" horiz-adv-x="378" />
<glyph unicode="&#xa0;" horiz-adv-x="378" />
<glyph unicode="!" horiz-adv-x="245" d="M31 1335l92 111l90 -111l-90 -997zM39 98l92 111l90 -111l-90 -108z" />
<glyph unicode="&#x22;" horiz-adv-x="552" d="M94 1391l109 106q0 -68 5 -135.5t5 -136.5l-109 -107q0 70 -5 137.5t-5 135.5zM322 1393l108 106q2 -80 4 -140.5t6 -131.5l-108 -107q0 70 -5 137.5t-5 135.5z" />
<glyph unicode="#" horiz-adv-x="1007" d="M41 477l8 60q4 16 21 16h176q10 76 19 143.5t22 143.5h-172q-10 0 -16.5 6t-4.5 16l8 58q4 18 21 18h178q16 104 28.5 205.5t28.5 206.5q0 18 19 18h61q10 0 16.5 -6t4.5 -16l-56 -408h263q16 102 31.5 205.5t27.5 206.5q4 18 20 18h62q10 0 16 -6t4 -16l-55 -408h160 q8 0 14 -6t4 -17l-8 -57q-4 -18 -18 -18h-166q-10 -72 -21.5 -141.5t-19.5 -145.5h160q10 0 16 -6t4 -15l-8 -59q-4 -16 -21 -16h-163l-62 -439q-4 -18 -20 -18h-64q-10 0 -16 6t-4 17l61 434h-264q-16 -109 -32.5 -219.5t-29.5 -219.5q-4 -18 -20 -18h-64q-10 0 -16 6 t-4 17l61 434h-170q-10 0 -16 5t-4 15zM348 553h264l41 287h-264q-10 -72 -21.5 -141.5t-19.5 -145.5z" />
<glyph unicode="$" horiz-adv-x="516" d="M6 319q25 14 33 40t8 61v20l25 21l-2 -41q0 -10 11 -25.5t31.5 -31t44 -32t48.5 -28.5v354l-158 -116v581q0 10 -2 23.5t-12 19.5l-21 -12l-6 29l199 127v229h61v-190l84 55q45 -33 67.5 -93.5t19.5 -137t-29.5 -162.5t-79.5 -168l-21 -17q10 49 16.5 111.5t3.5 128 t-16.5 126t-44.5 105.5v-548l148 112q0 -55 12 -98t26.5 -78t27 -66.5t12.5 -64.5q0 -76 -17.5 -126t-48.5 -88t-72 -72t-88 -77v-172h-61v160q-33 10 -64.5 27.5t-58.5 38t-47.5 40t-28.5 35.5zM166 672l39 28v570l-39 -25v-573zM266 274q7 -2 17 -2q31 0 52 13.5t34.5 35 t19.5 48t6 53.5q0 33 -9 66.5t-23.5 70.5t-29 80t-24.5 96l-43 -33v-428z" />
<glyph unicode="%" horiz-adv-x="1124" d="M45 1137q0 37 27.5 88t67.5 98t82 81t71 34q41 0 85 -33t81 -81t60.5 -100.5t23.5 -90.5q0 -43 -22.5 -90.5t-56.5 -89.5t-76 -74.5t-79 -51.5q-43 2 -90 35t-85 80t-63.5 100.5t-25.5 94.5zM147 1198q0 -31 19.5 -79t49.5 -92t66.5 -75.5t71.5 -31.5l29 18 q16 23 34.5 56.5t18.5 62.5q0 94 -42 151.5t-109 112.5q-10 8 -19.5 18.5t-23.5 10.5q-20 0 -38 -17.5t-30 -41t-19.5 -49.5t-7.5 -44zM289 4l434 1421h121l-436 -1421h-119zM592 303q0 37 27.5 88t67.5 98.5t82 81t71 33.5q41 0 85 -32.5t80.5 -81t60.5 -100.5t24 -91 q0 -43 -23 -90t-56.5 -89t-75.5 -75t-79 -51q-43 2 -90 34.5t-85 80t-63.5 100.5t-25.5 94zM694 365q0 -31 19.5 -79t49.5 -92t66.5 -76t71.5 -32l29 18q16 23 34.5 57t18.5 62q0 94 -42 151.5t-110 112.5q-10 8 -19 18.5t-24 10.5q-20 0 -37.5 -17.5t-29.5 -41t-19.5 -49 t-7.5 -43.5z" />
<glyph unicode="&#x26;" horiz-adv-x="1042" />
<glyph unicode="'" horiz-adv-x="313" d="M94 1391l109 106q0 -68 5 -135.5t5 -136.5l-109 -107q0 70 -5 137.5t-5 135.5z" />
<glyph unicode="(" horiz-adv-x="303" d="M47 539q0 70 10.5 164t29.5 199.5t50 213t71 203.5t90 174t112 123q31 -16 14 -43q-78 -74 -134.5 -188.5t-92 -245.5t-53 -261t-17.5 -235q0 -31 5 -100.5t16.5 -156.5t29 -179t44 -169t61 -126t79.5 -49q25 0 41.5 27.5t22.5 46.5l14 -21q-8 -20 -23.5 -55t-36 -70 t-46 -60.5t-51.5 -25.5q-45 0 -80 53.5t-60.5 135t-44 181t-30 192.5t-16.5 167t-5 105z" />
<glyph unicode=")" horiz-adv-x="354" d="M-92 1405q8 20 23.5 55t36 70t46 60.5t52.5 25.5q45 0 79.5 -53.5t60 -135t44 -181t30 -192.5t16.5 -167t5 -105q0 -70 -10 -164t-29.5 -199.5t-50.5 -213t-71 -203.5t-90 -174t-111 -123q-31 16 -15 43q78 74 134.5 188.5t92 245.5t53 261t17.5 235q0 31 -5 100.5 t-16.5 156.5t-28.5 179t-44 169t-61.5 126t-79.5 49q-25 0 -41.5 -27.5t-22.5 -46.5z" />
<glyph unicode="*" horiz-adv-x="1007" d="M256 1180q0 18 11.5 42.5t33.5 24.5q12 0 36.5 -12t51.5 -27.5t49.5 -30t30.5 -20.5q14 6 14 23q0 41 -18.5 80.5t-18.5 80.5q0 23 20 32t38 9t36.5 -8t18.5 -31q0 -41 -14.5 -83.5t-22.5 -83.5l13 -19q14 8 37.5 22.5t48 30t47 26.5t34.5 11q27 0 38.5 -23.5t11.5 -45.5 q0 -29 -26 -37t-61.5 -9.5t-70.5 -4.5t-53 -17q10 -12 33.5 -31.5t47 -41t42 -40t18.5 -28.5q0 -23 -20.5 -43.5t-43.5 -20.5q-25 0 -39 22.5t-25 52.5t-22.5 60.5t-27.5 46.5q-18 -16 -29.5 -45.5t-23 -60.5t-25.5 -53.5t-35 -22.5q-23 0 -44 19.5t-21 42.5q0 12 17 31.5 t41 40t47.5 40t33.5 31.5q-18 12 -54 15t-70 6.5t-59.5 12.5t-25.5 36z" />
<glyph unicode="+" horiz-adv-x="720" d="M70 555v119h243v244h119v-244h244v-119h-244v-244h-119v244h-243z" />
<glyph unicode="," horiz-adv-x="231" d="M-43 -291q63 61 97 136t50 157l-79 96l92 111l90 -111q-25 -121 -80 -227.5t-154 -171.5q-8 6 -16 10z" />
<glyph unicode="-" horiz-adv-x="364" d="M70 348v119l245 170v-119zM70 590v119l245 170v-119z" />
<glyph unicode="." horiz-adv-x="231" d="M25 98l92 111l90 -111l-90 -108z" />
<glyph unicode="/" horiz-adv-x="770" d="M41 -92l569 1630h119l-569 -1630h-119z" />
<glyph unicode="0" horiz-adv-x="837" d="M59 635q0 45 12.5 104.5t36 121t57.5 119.5t76 105.5t91 75t104 27.5q94 0 160 -55.5t105.5 -137.5t57 -175t17.5 -169q0 -33 -2 -78t-7 -92t-12 -91t-18 -75q-12 -39 -48 -97t-83 -112.5t-100 -93.5t-98 -39q-80 0 -136.5 33t-95.5 88.5t-61.5 125t-34.5 143 t-16.5 144.5t-4.5 128zM174 672q0 -45 3 -106.5t14.5 -126t30 -129t50 -115t77.5 -81t110 -30.5q68 0 106.5 55.5t57 130t23.5 152.5t5 125q0 68 -8 160t-36.5 176t-83 143t-148.5 59q-78 0 -119 -44t-59.5 -108.5t-20.5 -135t-2 -125.5z" />
<glyph unicode="1" horiz-adv-x="366" d="M49 885v39q8 10 47 53t84 92t82 88t43 41v-20q0 -29 -6 -57.5t-6 -57.5l-6 -830q0 -72 -8.5 -109.5t-24.5 -65t-40 -58.5t-54 -86q-8 -14 -20.5 -37.5t-33.5 -23.5q4 37 14.5 71.5t21 69.5t18.5 70.5t8 72.5l2 471q0 66 -1 130.5t-7 129.5q0 2 -1 14.5t-3 27t-6.5 24.5 t-8.5 10q-4 -4 2.5 2t5.5 6t-19.5 -14t-72.5 -59z" />
<glyph unicode="2" horiz-adv-x="712" d="M51 -27q0 23 30 61t75 93t96 126t95 158t74 190.5t30 221.5q0 39 -9.5 91.5t-31 99.5t-56.5 80.5t-84 33.5q-35 0 -63.5 -19t-49 -48t-31.5 -63.5t-11 -65.5q0 -41 11 -77t24.5 -69.5t24.5 -65.5t11 -63l-16 -8q-27 0 -47.5 25.5t-33.5 59.5t-20.5 69t-7.5 55 q0 57 14.5 111.5t55.5 97.5q12 14 35.5 40t51.5 51.5t54.5 45t44.5 19.5q68 0 116 -30t80 -77t46 -106.5t14 -116.5q0 -90 -27.5 -178t-67.5 -170t-88 -155t-89 -130t-68.5 -97t-27.5 -57q33 2 63.5 14.5t67.5 12.5q59 0 114.5 -14.5t112.5 -14.5q14 0 26.5 14.5t25 34 t21.5 39t17 29.5h21q-2 -14 -25.5 -58t-52.5 -91t-56.5 -84t-35.5 -37q-33 0 -67 8t-68.5 18.5t-70.5 18.5t-69 8q-47 0 -89 -15.5t-89 -15.5z" />
<glyph unicode="3" horiz-adv-x="665" d="M45 170q0 8 11.5 28.5t26.5 42t30.5 39t23.5 19.5q4 -23 3 -44.5t7 -43.5q6 -14 26 -39t45.5 -49.5t50 -42t40.5 -17.5q68 0 110 21.5t65.5 60.5t31.5 90.5t8 110.5q0 39 -11 97.5t-35.5 112.5t-62.5 92t-91 38q-31 0 -56.5 -14.5t-54.5 -18.5l-10 11q59 66 131 151.5 t129 185.5q-35 -16 -79 -22t-87 -3t-82 13t-63 27l-29 -45l-31 20l135 189q2 -27 30 -42.5t62.5 -22.5t70.5 -9t56 -2q6 0 23.5 2t37 6t36 7t20.5 7l27 -10q-53 -78 -107.5 -155.5t-109.5 -155.5q8 -14 29.5 -20.5t50 -16.5t60.5 -27.5t57.5 -51.5t43 -89t17.5 -141 q0 -41 -2 -85t-17 -83q-16 -45 -53 -101.5t-84 -106.5t-101.5 -85t-105.5 -35q-33 0 -71.5 19.5t-72.5 49t-56.5 66.5t-22.5 72z" />
<glyph unicode="4" horiz-adv-x="794" d="M18 193v8q0 2 41 52t90.5 131t90.5 185.5t41 214.5q0 51 -5.5 92.5t-19.5 77t-36.5 69.5t-57.5 71q0 18 10.5 29.5t20.5 25.5l79 59q25 0 45.5 -49t35 -111.5t21.5 -123t7 -80.5q0 -72 -33 -156t-72.5 -158.5t-73.5 -133t-34 -79.5l14 -12q49 12 99.5 22.5t101.5 10.5 q43 0 48 21.5t5 58.5q0 18 1 70.5t3 120t4 141t4.5 135t4.5 102.5t4 45q4 6 17 18.5t28.5 24.5t31 20.5t21.5 8.5q14 0 17 -15.5t3 -25.5q0 -123 -10 -247t-10 -247q0 -45 3 -88t1 -88q0 -35 33 -44t73 -11t72.5 -9t32.5 -38q0 -8 -6 -29.5t-15.5 -44t-18.5 -44t-15 -30.5 q-16 16 -21.5 31.5t-11.5 28t-21.5 19.5t-50.5 7q-10 0 -19 -1t-20 -3q-6 -8 -11 -19t-5 -22q0 -31 6 -68.5t21 -66.5q0 -10 -14.5 -23.5t-33 -25.5t-37 -20.5t-26.5 -8.5q-18 0 -25.5 33t-9.5 76t-2 83t-4 56q-8 6 -34.5 8t-59.5 3t-62.5 1h-42.5q-31 0 -60.5 -6t-57 -14 t-48 -14.5t-32.5 -6.5z" />
<glyph unicode="5" horiz-adv-x="702" d="M39 150q0 12 8 29.5t21.5 32.5t29 26.5t29.5 11.5l14 -6q14 -29 33 -59.5t42.5 -57.5t53 -44t64.5 -17q55 0 91 30.5t56.5 75.5t28.5 97.5t8 95.5q0 47 -12 100t-39 99t-68 77t-98 31q-45 0 -81 -20.5t-61.5 -46t-41 -46t-19.5 -20.5q-8 0 -8 10q0 23 8 40t15 38 q35 104 51 215.5t37 222.5q4 16 10 39.5t31 23.5q66 -2 130 -4t130 -2q27 0 46 6.5t35.5 17.5t32.5 23.5t39 24.5q-2 -18 -18 -50t-39 -64.5t-46.5 -56.5t-41.5 -26q-35 -4 -72 -9t-71 -5q-29 0 -57.5 5t-57.5 5q-10 0 -23.5 -37.5t-24.5 -86t-19.5 -92.5t-8.5 -58 q0 -6 4 -19q14 0 28.5 17.5t34 40t48 41t74.5 18.5q51 0 97 -25.5t79.5 -66.5t53 -91t19.5 -99q0 -47 -9 -107.5t-26.5 -123t-46 -124t-66.5 -108.5t-86 -77t-108 -30q-29 0 -68.5 17.5t-76.5 44t-62.5 59.5t-25.5 64z" />
<glyph unicode="6" horiz-adv-x="706" d="M27 586q0 94 28.5 191t73.5 188.5t102.5 172.5t116.5 146q25 27 45.5 41t40 23.5t40.5 19t48 27.5h23q10 -10 10 -27l-2 -14q-12 -18 -30.5 -28.5t-39 -15.5t-41 -10.5t-36.5 -15.5q-78 -43 -129.5 -114.5t-83 -157.5t-45 -180.5t-13.5 -182.5q0 -63 17.5 -154.5 t53.5 -176.5t90 -145t126 -60q37 0 65.5 32.5t47 78.5t27.5 94.5t9 80.5q0 63 -12 136t-42 134.5t-77 102.5t-116 41q-18 0 -41 -18.5t-43.5 -44t-38 -52t-27.5 -43.5l-8 33q23 35 50.5 77t61 78t71.5 60.5t81 24.5q63 0 107.5 -45t70 -109.5t36.5 -137.5t11 -128 q0 -63 -28.5 -150.5t-76.5 -167t-108.5 -136t-124.5 -56.5q-49 0 -90 31.5t-73.5 84t-56 117t-39 129t-23.5 125t-8 101.5z" />
<glyph unicode="7" horiz-adv-x="579" d="M-49 -184q0 12 20.5 59t51 112.5t66.5 141.5t70 147.5t59.5 131t33.5 90.5q2 6 -3 8t-12.5 3t-15.5 1h-12q-31 0 -60.5 -5t-58.5 -13l-18 12l10 31q20 25 45 37t52.5 18t56 7t57.5 5l172 373l10 10q-35 -16 -88 -20t-108.5 2t-103.5 19t-73 30l-28 -45l-31 20l135 189 q2 -27 30 -42.5t62.5 -22.5t70.5 -9t56 -2h33h57.5t57 1t30.5 5l27 -10l-80 -117q-23 -49 -49.5 -110.5t-51 -118t-46 -98.5t-29.5 -50l16 -1q17 -1 39.5 -2t45 -1h34.5q16 0 33.5 -6t17.5 -29q0 -10 -6 -25.5t-15 -30.5t-20.5 -26.5t-21.5 -11.5q-35 0 -64.5 13.5 t-64.5 13.5q-10 0 -28.5 -31t-42 -77t-49 -102.5t-47 -108.5t-39 -93t-23.5 -57q-16 -37 -23.5 -74t-18 -70.5t-30 -63.5t-57.5 -54l-11 -5q-12 4 -16 22.5t-4 29.5z" />
<glyph unicode="8" horiz-adv-x="634" d="M45 299q0 70 25.5 125t55.5 97t55.5 72t25.5 50q0 8 -16.5 33.5t-35 59.5t-35 72t-16.5 69q0 45 20.5 96t52.5 99t71 89t76 66q-14 -35 -35 -61.5t-39.5 -53.5t-31.5 -57.5t-13 -71.5q0 -25 13 -64.5t35.5 -77.5t51.5 -65.5t57 -27.5q14 0 30 17t27 39.5t18 47.5t7 37 q0 35 -8 68.5t-25.5 61.5t-46 45t-67.5 17q0 12 10 32t24.5 38t31 31.5t28.5 13.5q31 0 57.5 -23.5t45 -56.5t30 -68.5t11.5 -60.5q0 -53 -19.5 -95t-42 -75t-44 -58.5t-23.5 -45.5q6 -29 34.5 -52.5t60 -58.5t57.5 -87t26 -136q0 -41 -22.5 -112.5t-59.5 -141.5t-84 -120 t-96 -50q-55 0 -104.5 35t-88.5 87t-61.5 112.5t-22.5 109.5zM139 410q0 -43 20.5 -101.5t55.5 -111t80 -89t94 -36.5q25 0 46.5 23.5t36.5 56t23.5 66.5t8.5 54q0 55 -20.5 94.5t-51.5 73t-65.5 64.5t-63.5 67q-12 4 -25.5 14.5t-25.5 10.5q-20 0 -41 -22.5t-36 -53.5 t-25.5 -62.5t-10.5 -47.5z" />
<glyph unicode="9" horiz-adv-x="704" d="M37 672q0 63 28.5 151t76.5 168t108.5 135.5t126.5 55.5q49 0 90 -32t72.5 -84t56.5 -116.5t40 -129t23.5 -125t8.5 -101.5q0 -121 -42 -245t-112 -234.5t-159 -197.5t-183 -132h-22q-12 12 -13 27l2 14q111 45 190 122t131 171t76.5 200.5t24.5 210.5q0 63 -18.5 154.5 t-55 176.5t-91 145.5t-126.5 60.5q-37 0 -64.5 -33t-46 -79t-27.5 -94t-9 -81q0 -63 11 -136t40 -134t77 -102t120 -41q18 0 40.5 18t42 43t37 51.5t27.5 44.5l8 -32q-23 -35 -50 -77t-60 -78t-71 -60.5t-81 -24.5q-66 0 -109.5 45t-69.5 109.5t-37 137t-11 128.5z" />
<glyph unicode=":" horiz-adv-x="231" d="M25 98l92 111l90 -111l-90 -108zM25 600l92 111l90 -111l-90 -108z" />
<glyph unicode=";" horiz-adv-x="231" d="M-43 -291q63 61 97 136t50 157l-79 96l92 111l90 -111q-25 -121 -80 -227.5t-154 -171.5q-8 6 -16 10zM25 600l92 111l90 -111l-90 -108z" />
<glyph unicode="&#x3c;" horiz-adv-x="960" d="M98 717l2 82l760 319v-100l-637 -260l637 -262v-101z" />
<glyph unicode="=" horiz-adv-x="616" d="M70 436v119h487v-119h-487zM70 678v119h487v-119h-487z" />
<glyph unicode="&#x3e;" horiz-adv-x="960" d="M98 395v101l637 262l-637 260v100l762 -321v-82z" />
<glyph unicode="?" horiz-adv-x="585" d="M49 1176l90 157q33 2 66 5t65 3q53 0 104.5 -22.5t91.5 -60t64.5 -87t24.5 -104.5t-19.5 -108.5t-49 -107.5t-64.5 -110.5t-64.5 -121t-49 -136t-19.5 -155.5l-25 -15q-2 39 -4 77t-2 77q0 70 23.5 136.5t53.5 133t53.5 133t23.5 134.5q0 33 -14.5 71.5t-39 70.5 t-56.5 53.5t-66 21.5q-18 0 -43 -4.5t-51.5 -11.5t-50 -15t-42.5 -14zM176 98l92 111l90 -111l-90 -108z" />
<glyph unicode="@" horiz-adv-x="1226" d="M68 260q0 158 75.5 298t213 217t290.5 77q131 0 234.5 -52t158 -151.5t54.5 -216.5q0 -121 -55.5 -229.5t-134.5 -155.5t-165 -47q-53 0 -80.5 24.5t-27.5 67.5q0 20 12 90q-80 -111 -129 -147.5t-98 -36.5q-51 0 -79 43t-28 96q0 102 58.5 214t150.5 179q68 49 123 50 q35 0 59.5 -21.5t32.5 -69.5l21 70l125 10l-95 -315q-37 -129 -36 -164q0 -18 13 -32.5t34 -14.5q43 0 108.5 47t110.5 141.5t45 198.5q0 109 -51.5 199t-142.5 138t-203 48q-137 0 -261.5 -71.5t-198 -211t-73.5 -294.5q0 -213 135 -348.5t344 -135.5q166 0 300 90t198 248 h37q-66 -172 -208 -273.5t-327 -101.5q-236 0 -388 154t-152 389zM436 164q0 -35 16.5 -53.5t36.5 -18.5q23 0 57 23.5t72.5 79t57.5 108.5q33 91 33 150q0 45 -17.5 67.5t-42.5 22.5q-35 0 -71 -41q-57 -63 -105 -189q-37 -94 -37 -149z" />
<glyph unicode="A" horiz-adv-x="765" d="M-78 -326q59 80 96 169t58.5 174t30 158t8.5 120v561h-117l57 107h60l-2 81q0 27 6 65t25.5 79t58.5 81t104 70q-25 -4 -55.5 -3t-62 9.5t-61.5 22.5t-50 37l-45 -39l-25 35q33 16 74 57t65 80q12 -18 33 -36.5t46.5 -34t56 -24.5t63.5 -9q27 0 58.5 6t62.5 19.5 t58.5 32.5t45.5 44h37l-8 -55v-518h117l-58 -107h-59v-696q0 -23 15.5 -41.5t54.5 -28.5l51 43l24 -24q-16 -16 -37.5 -37t-43 -39.5t-40 -32.5t-28.5 -23l-4 3q-66 16 -112 47.5t-68 78.5q23 14 34 25.5t15 25t4 34v55.5v610h-215v-561q0 -55 -21.5 -136t-62.5 -171 t-98.5 -179.5t-130.5 -158.5zM250 963h215v428q-78 -35 -121 -74t-63.5 -73t-25.5 -59.5t-5 -33.5v-188z" />
<glyph unicode="B" horiz-adv-x="731" d="M-68 18q16 27 30.5 53.5t31 50t37 41t51.5 23.5q25 33 51.5 89.5t48 119t35.5 124t14 106.5q0 205 -52 405.5t-122 394.5l-88 -59l-12 37l201 131q20 -51 43.5 -109.5t40.5 -107.5l276 223q12 -33 41 -95.5t58.5 -130t52 -129t22.5 -89.5q0 -27 -29.5 -62t-78.5 -82 q12 -98 36.5 -181t49 -163t43 -161.5t18.5 -174.5q-55 -29 -91 -81t-64.5 -104t-59.5 -91t-80 -39q-31 0 -78 17.5t-100 37t-107.5 37t-99.5 17.5q-23 0 -34 -7.5t-18 -16.5t-15.5 -21.5t-22.5 -20.5zM125 190q47 0 89 -15t83 -32.5t84 -32t90 -14.5q45 0 82 37t39 82 q1 24 1 47q1 82 -11 148q-14 84 -37 155.5t-47.5 138t-38.5 144.5l-117 -98q-2 -55 -21.5 -130t-50 -153t-68.5 -151t-77 -126zM254 1280q39 -117 62.5 -233.5t25.5 -249.5v2l195 153q12 10 26.5 31t14.5 37q0 31 -19.5 84t-45.5 111.5t-50.5 112.5t-32.5 89z" />
<glyph unicode="C" horiz-adv-x="890" d="M59 745q0 166 80 315.5t203 289.5l29 -27q-78 -104 -128 -226t-50 -249q0 -180 75 -336q27 16 50.5 47t41 68t27.5 75.5t10 75.5v484q-2 51 -7 93t-11 64q37 8 68.5 15.5t60.5 21.5t54.5 41t49.5 76q18 -35 50 -73t79 -38q43 0 81 34t61 67q-8 -43 -19.5 -82t-33 -69 t-55.5 -48t-83 -18q-41 0 -84 23.5t-73 57.5l-3 -210l-2 -431q0 -43 -22.5 -91t-58 -91t-79.5 -75.5t-87 -45.5q66 -117 154.5 -221t197.5 -184q47 35 93 88t79 104l33 -30q-59 -78 -131 -146.5t-152 -126.5q-82 57 -170 145.5t-160.5 193t-120 217t-47.5 222.5z" />
<glyph unicode="D" horiz-adv-x="743" d="M-113 18q16 29 33 60t37 55.5t48 40.5t67 16q37 0 70.5 -12t66.5 -27.5t66.5 -27.5t70.5 -12q51 0 89 44t65.5 112.5t46 152.5t30 165t15.5 147.5t4 98.5q0 88 -9 192.5t-44 195t-101.5 151t-181.5 60.5q-86 0 -159.5 -27t-118.5 -107l-33 7q27 49 69.5 91t94 72.5 t109 48t112.5 17.5q113 0 183.5 -46t109.5 -122t52 -173t13 -198q0 -51 -11 -146t-33.5 -208t-57.5 -229.5t-81 -213t-105.5 -156.5t-129.5 -60q-35 0 -65.5 13t-61 29.5t-65.5 30t-76 13.5q-35 0 -51 -23t-39 -43zM45 1122l223 238l41 -10l-139 -152q0 -92 26.5 -185 t57.5 -185.5t57.5 -184.5t26.5 -184l2 -86q-51 -29 -94 -69t-76 -87l-35 25l64 71q4 25 5 50.5t1 50.5q0 96 -24.5 186t-55.5 176t-55.5 171t-24.5 175z" />
<glyph unicode="E" horiz-adv-x="890" d="M59 745q0 166 80 315.5t203 289.5l27 -23q-78 -104 -127 -228t-49 -251q0 -92 18 -179t55 -163q27 16 52.5 48t45 70t32 78.5t12.5 77.5v224h-132l39 108h93l2 148q-2 51 -5.5 94t-9.5 65q37 8 67 15.5t54.5 21.5t48 41t47.5 76q18 -35 50 -73t79 -38q43 0 81 34t61 67 q-8 -43 -19.5 -82t-33 -69t-55.5 -48t-83 -18q-41 0 -79 23.5t-68 57.5l-2 -210v-105h182l-39 -108h-145v-218q0 -43 -24.5 -92t-63.5 -93t-84 -78t-88 -46q66 -117 156.5 -216t199.5 -179q47 35 94 87t80 103l29 -32q-59 -78 -131 -146.5t-152 -126.5q-82 57 -170 145.5 t-160.5 193t-120 217t-47.5 222.5z" />
<glyph unicode="F" horiz-adv-x="624" d="M25 528q0 70 6 138q14 -98 36.5 -195.5t56.5 -174.5t82 -125t116 -48q39 0 58 19.5t27.5 49t9.5 65.5t1 71q0 37 -5 87t-18.5 128t-36 189.5t-57.5 271.5h-145l39 108h84q-16 72 -32 147.5t-36 167.5q30 -3 58 -3h13q34 1 62.5 12.5t49 38t30.5 75.5q18 -35 56 -68.5 t83 -33.5t88 34t68 77q-6 -39 -20.5 -79t-39 -73t-60.5 -53.5t-85 -20.5q-59 0 -93 28t-69 58q16 -78 35 -154.5t35 -152.5h121l-39 -108h-58q41 -193 71 -379.5t38 -372.5q-82 -72 -161 -143.5t-148 -157.5q-63 55 -106.5 121.5t-69 140.5t-35.5 153.5t-10 161.5z" />
<glyph unicode="G" horiz-adv-x="890" d="M59 745q0 166 80 315.5t203 289.5l29 -27q-78 -104 -128 -226t-50 -249q0 -92 18 -178t55 -162q27 16 49.5 48t40 70t26.5 77.5t9 76.5l2 480q-2 51 -5 94t-9 65q37 8 68.5 15.5t60.5 21.5t54.5 41t49.5 76q18 -35 50 -73t79 -38q43 0 81 34t61 67q-8 -43 -19.5 -82 t-33 -69t-55.5 -48t-83 -18q-41 0 -84 23.5t-73 57.5l-3 -210l-2 -189l166 109q74 -186 123 -379t49 -398q-10 -100 -86.5 -192t-224.5 -201q-82 57 -170 145.5t-160.5 193t-120 217t-47.5 222.5zM281 479q66 -117 157.5 -220t200.5 -183q61 51 85 120q23 66 23 142 q0 5 -1 10q-1 82 -19 172t-44 179t-49.5 173t-33.5 158l-70 -47v-197q0 -43 -23.5 -91t-59 -92t-79.5 -77.5t-87 -46.5z" />
<glyph unicode="H" horiz-adv-x="636" d="M-57 236q23 14 50 31.5t53 39t43 48t17 59.5q0 16 1.5 59t1.5 97.5t2 116t2 116.5t1 97t1 58v98.5t-2 136.5t-5.5 134.5t-11.5 91.5q37 8 69 15.5t60.5 21.5t54 41t50.5 76q18 -35 50 -73t79 -38q43 0 81 34t60 67q-8 -43 -19.5 -82t-33 -69t-55 -48t-82.5 -18 q-41 0 -84 23.5t-74 57.5l-4 -428l190 125q74 -186 124 -385.5t50 -404.5q0 -82 -12 -173t-43 -177t-80 -161t-123 -124h-2q-7 -1 -13 11l-9 18q98 94 135 208.5t37 245.5q0 100 -14.5 208t-38 215.5t-53 212t-60.5 200.5l-88 -62l-6 -518q0 -25 -18.5 -48t-43 -42.5 t-52.5 -36t-46 -26.5q8 -23 32.5 -53.5t57.5 -57.5t66.5 -45t62.5 -18q12 0 23 10l22 -31l-108 -102q-4 -2 -11 -2q-29 0 -72.5 29.5t-86.5 69.5t-78 83t-47 68z" />
<glyph unicode="I" d="M25 528q0 70 6 138q14 -98 36.5 -195.5t56.5 -174.5t82 -125t116 -48q39 0 56 19q18 20 24 50q5 22 4 48v20q-2 37 -3 72q0 61 -8 178t-10 260v58q0 116 6 241q8 156 43 297v4q-55 -39 -127 -39q-43 0 -91 19.5t-89 62.5l-41 -37l-23 33q29 16 67 56t60 77 q23 -35 72 -67.5t109 -32.5q49 0 98 25.5t82 72.5l20 2q-18 -100 -32.5 -247.5t-20.5 -320.5q-3 -80 -2 -162q0 -96 3 -196q7 -186 36 -364q-82 -72 -161 -143.5t-148 -157.5q-63 55 -106.5 121.5t-69 140.5t-35.5 153.5t-10 161.5z" />
<glyph unicode="J" d="M25 297q0 70 6 137q14 -98 36.5 -195.5t56.5 -174t82 -125t116 -48.5q39 0 62.5 20.5t35.5 51.5t13 68v11q0 31 -5 60q-12 68 -26.5 165.5t-27 216t-17.5 250.5q-2 51 -2 102q0 83 5 168h-161l45 108h125q2 29 8 68t13 78.5t14.5 77.5t13.5 67q-27 -18 -55.5 -32.5 t-65.5 -14.5q-43 0 -84 18.5t-82 61.5l-41 -37l-22 33q29 16 66.5 56t60.5 77q23 -35 71.5 -68t108.5 -33q16 0 40.5 4.5t50.5 15.5t47.5 27.5t33.5 40.5l22 -2q-12 -43 -24.5 -97t-21.5 -112.5t-16 -118t-11 -110.5h96l-45 -108h-58q-3 -74 -3 -150q0 -165 12 -339 q18 -253 57 -495q-82 -72 -161 -143.5t-148 -157.5q-63 55 -106.5 122t-69 140.5t-35.5 153.5t-10 162z" />
<glyph unicode="K" horiz-adv-x="790" d="M20 236q23 14 53.5 33.5t56.5 42t43 50t15 60.5v881q0 57 -5 88.5t-9 44.5q39 2 76 5t67.5 15t51 38t30.5 75q20 -35 52 -73t77 -38t82 34t62 67q-8 -43 -20.5 -80t-35 -63.5t-56.5 -42t-85 -15.5q-41 0 -80 19.5t-71 49.5v-321l194 158q12 -33 37 -79t50.5 -95.5 t45 -94.5t19.5 -73q0 -27 -23.5 -57.5t-55.5 -59.5t-63.5 -54.5t-50.5 -39.5q20 -23 41 -76t41.5 -122t42 -141.5t44 -134t47 -100.5t50.5 -39q10 0 18.5 4t16.5 9l8 -21l-27.5 -27.5t-37 -36t-37.5 -31.5t-31 -13q-31 0 -57.5 42t-49 106.5t-44 142t-42 149.5t-41 128 t-40.5 77q-16 -12 -27.5 -24.5t-27.5 -24.5v-7q0 -31 -16 -71q-18 -45 -43 -90t-55 -81t-54 -50q12 -20 38.5 -51t58.5 -61t64.5 -51.5t57.5 -21.5q6 0 16 8.5t15 12.5l22 -23q-43 -39 -66.5 -60.5t-33.5 -31.5q-13 -12 -17 -14q-29 2 -72.5 30.5t-89 68.5t-81 82t-48.5 69z M324 625l202 168q23 20 23 59q0 31 -13.5 70t-32 78.5t-35.5 79.5t-26 75l-118 -96v-434z" />
<glyph unicode="L" horiz-adv-x="622" d="M-68 188q23 14 53.5 36t59.5 48q29 28 47 58q17 28 17 57v6v764q0 53 -1.5 90t-4.5 65.5t-7 53.5t-12 53q27 2 59.5 10.5t66.5 24.5t65.5 45t56.5 74q18 -35 50 -73t79 -38q43 0 81 34t60 67q-8 -43 -20.5 -82t-34 -69t-55 -48t-82.5 -18q-41 0 -88.5 26.5t-79.5 57.5 v-1022q0 -25 -18.5 -48.5t-43 -44t-52.5 -38t-46 -27.5q31 -43 90 -74t126 -51.5t126 -29.5t90 -9q2 0 10 5t15.5 11.5t14.5 12.5t9 8l33 -35l-133 -121q-20 -3 -42 -3q-38 0 -83 8q-72 14 -146.5 43.5t-144.5 73.5t-115 99z" />
<glyph unicode="M" horiz-adv-x="1200" d="M8 1407l199 127q20 -20 42.5 -57t22.5 -70v-61l297 188q10 -10 24.5 -25.5t28 -33t22.5 -36t9 -34.5v-59q55 31 100.5 63.5t81 59t64.5 44t53 17.5h6q45 0 73 -30q30 -32 49.5 -75t31.5 -86t25 -65q-47 -18 -72 -46t-35 -66t-11 -88t-1 -113v-752q0 -47 25.5 -71.5 t62.5 -28.5l51 41l21 -27q-16 -16 -38 -36.5t-43.5 -39t-40 -33t-28.5 -22.5q-66 16 -121 48t-78 79q41 27 46.5 66.5t7.5 97.5v690q0 35 4 68.5t18.5 66.5t41 63.5t69.5 61.5q-18 39 -35.5 82t-44.5 70.5t-69 27.5t-111 -47l-103 -63v-1113q0 -78 72 -84l51 41l25 -24 q-18 -16 -40 -34.5t-43.5 -37t-38.5 -35t-28 -24.5q-66 16 -114 48t-70 79q23 14 33 29.5t14 36t4 49v69.5v1040q0 16 -15.5 43t-31.5 37l-199 -120v-1123q0 -31 13.5 -51t50.5 -25l51 41l25 -22q-16 -16 -38 -36.5t-43.5 -39t-40 -33t-28.5 -22.5q-129 35 -176 127 q23 14 33 26.5t14 27.5t4 36.5v54.5v1079q0 20 -10 47t-23 33l-79 -49z" />
<glyph unicode="N" horiz-adv-x="847" d="M18 1409l220 129q20 -20 34.5 -46t14.5 -58v-60q25 18 53.5 46t59 53.5t62.5 44t62 18.5q41 0 81 -29.5t74 -67.5t58.5 -75t34.5 -49q-33 -14 -53.5 -36t-32.5 -57.5t-16 -91t-4 -135.5v-809q0 -25 24.5 -51t61.5 -31l49 46l24 -27q-16 -16 -37.5 -36.5t-43 -39t-40 -33 t-28.5 -22.5q-66 16 -121 48t-78 79q45 29 49 70.5t4 113.5v51v670q0 33 1 67.5t11.5 68.5t33 63.5t63.5 52.5q-6 12 -25.5 37.5t-46 52.5t-56.5 47.5t-56 20.5q-37 0 -76 -32t-92 -73v-1143q0 -35 23.5 -55t60.5 -25l51 41l24 -24q-16 -16 -37.5 -36.5t-43 -39t-40 -33 t-28.5 -22.5q-66 16 -121 48t-78 79q45 29 48.5 75t5.5 111v53l-2 1012q0 16 -3.5 38t-25.5 26l-90 -54z" />
<glyph unicode="O" horiz-adv-x="890" d="M59 764q0 168 80 321.5t201 294.5l29 -26q-78 -106 -130.5 -234.5t-52.5 -257.5q0 -131 26 -232.5t68 -190.5t92 -175t99 -186q55 43 104.5 100.5t86 124t57 138t20.5 143.5q0 82 -17 169t-47 176t-69 176t-80 167v-467q0 -45 -22.5 -94t-58 -94.5t-79.5 -79t-87 -48.5 l-11 25q63 45 102.5 127t39.5 158v641l116 94q49 -100 104.5 -195.5t102.5 -192.5t78 -198.5t31 -216.5q0 -121 -36 -232.5t-97.5 -210t-143.5 -183.5t-174 -152q-49 88 -106.5 187.5t-107.5 204t-84 209.5t-34 210z" />
<glyph unicode="P" horiz-adv-x="724" d="M-41 -326q59 80 96 169t58.5 174t30 158t8.5 120l2 749v273q0 8 -2 24.5t-6.5 34t-10.5 33.5t-16 23l-82 -48l-14 37l200 111q20 -20 42 -56t22 -69v-41l229 150q74 -186 121 -393.5t47 -411.5q0 -68 -11 -142.5t-36 -147.5t-61.5 -139.5t-88.5 -119.5q-47 -47 -90 -79 t-98 -87q-4 -2 -10 -2q-33 0 -72 29q-41 -98 -102.5 -196.5t-141.5 -176.5zM266 168q25 -25 51.5 -41t55.5 -16q12 0 22 10q178 188 178 438q0 100 -13 210t-35.5 218.5t-51.5 215t-59 202.5l-127 -86v-1024q0 -27 -5.5 -58.5t-15.5 -68.5z" />
<glyph unicode="Q" horiz-adv-x="890" d="M59 764q0 168 80 321.5t201 294.5l29 -26q-78 -106 -130.5 -234.5t-52.5 -257.5q0 -131 26 -232.5t68 -190.5t92 -175t99 -186q55 43 104.5 100.5t86 124t57 138t20.5 143.5q0 82 -17 169t-47 176t-69 176t-80 167v-467q0 -45 -22.5 -94t-58 -94.5t-79.5 -79t-87 -48.5 l-11 25q63 45 102.5 127t39.5 158v641l116 94q49 -100 104.5 -195.5t102.5 -192.5t78 -198.5t31 -216.5q0 -121 -36 -232.5t-97.5 -210t-143.5 -183.5t-174 -152q-14 -10 -27.5 -19.5t-25.5 -17.5q10 -20 40 -35.5t64.5 -25t70.5 -13.5t60 -4q12 0 23 10l6 -20l-108 -102 q-4 -2 -11 -2q-29 0 -72.5 14t-87.5 35.5t-80 48t-48 51.5q29 20 82 51t94 68q-49 86 -103.5 180t-100.5 193.5t-77 200t-31 198.5z" />
<glyph unicode="R" horiz-adv-x="794" d="M-10 1405l203 131q18 -51 34.5 -110.5t30.5 -108.5l285 223q10 -33 36.5 -95.5t54.5 -130t48 -129t20 -89.5q-2 -29 -41.5 -70t-101.5 -98l-27 -25q20 -23 36 -90.5t31 -156.5t28.5 -186t31 -179t37 -135.5t45.5 -53.5q10 0 19.5 9.5t17.5 13.5l10 -35 q-10 -10 -28.5 -27.5t-39 -36t-38.5 -31.5t-31 -13q-35 0 -60.5 52t-45 134t-34.5 180t-29.5 190.5t-29 168t-32.5 108.5l-80 -65q-8 -121 -54 -246t-132 -223q-6 -20 1 -51t24.5 -59t42 -48.5t50.5 -20.5q6 0 35 16.5t76 45.5l14 -29q-63 -43 -124.5 -83t-84.5 -62 q-4 -2 -10 -2q-29 0 -51.5 23.5t-41.5 57t-34.5 69.5t-27.5 63l-3 4l7 4q6 6 12 10t10 8q100 84 136 181.5t40 216.5q1 34 1 68q0 171 -34 337q-40 200 -104 395l-88 -59zM268 1284q34 -118 56 -236q18 -100 18 -210v-41l195 155q16 14 24 37t8 39q0 31 -15 84t-36.5 109.5 t-41 110.5t-27.5 89z" />
<glyph unicode="S" horiz-adv-x="645" d="M-94 18q18 31 34.5 62t36 55.5t46 39.5t67.5 15q47 0 72.5 -13t47 -30.5t47.5 -31t73 -13.5q45 0 82 31t39 76q3 59 3 111q0 64 -4 120q-8 98 -18 184.5t-20.5 171.5t-12.5 191l-280 -168v422q0 86 -6.5 121t-16.5 53q43 8 83 18.5t72 28t54.5 47t32.5 76.5 q10 -18 30.5 -39.5t46 -40t52.5 -31t49 -12.5q43 0 81 34t60 67q-8 -41 -19 -79t-32.5 -66.5t-55.5 -45t-83 -16.5q-41 0 -100.5 18.5t-106.5 61.5v-488l272 160q-1 -39 -1 -75q1 -87 7 -161q10 -106 22 -202q14 -97 24 -192q9 -80 9 -171q0 -17 -1 -35q-55 -29 -91 -81 t-64.5 -104t-59.5 -91t-80 -39q-31 0 -60.5 17.5t-61.5 37t-68.5 37t-81.5 17.5q-23 0 -35.5 -6.5t-20.5 -16.5t-13 -21.5t-15 -23.5z" />
<glyph unicode="T" horiz-adv-x="657" d="M-113 18q18 31 35 62t36 55.5t46 39.5t68 15q47 0 101 -13t108.5 -30.5t108.5 -31t102 -13.5q39 0 68.5 29t47.5 62l37 -9q-25 -37 -44 -74.5t-40.5 -68.5t-47.5 -50.5t-58 -19.5q-31 0 -88.5 14.5t-122 33t-129 33t-109.5 14.5q-23 0 -34 -7.5t-18 -16.5t-15.5 -21.5 t-22.5 -20.5zM-66 1278q2 37 20.5 81t49.5 83t72 64.5t90 25.5q47 0 104.5 -12.5t118 -25.5t117.5 -25.5t104 -12.5q39 0 52.5 13.5t29.5 39.5l33 -4q-25 -37 -40 -69.5t-30.5 -57t-36 -40t-53.5 -15.5q-31 0 -92 12.5t-131 27.5t-137.5 27.5t-112.5 12.5q-33 0 -55.5 -14.5 t-34.5 -36t-17 -45t-3 -43.5zM106 1051l234 249l43 -10l-156 -162v-15q-1 -60 13 -114q16 -61 38.5 -121.5t49 -122t48.5 -125.5q22 -66 34 -136q8 -48 8 -99q0 -25 -2 -51q-16 -8 -45 -29.5t-57.5 -47t-53 -51.5t-35.5 -40l-18 39q0 2 10 13.5t22.5 23.5t23.5 23.5t11 15.5 q9 51 9 96q0 27 -3 51q-8 66 -28.5 125.5t-47 114.5t-50.5 114q-24 58 -38 120q-11 49 -11 107q0 16 1 32z" />
<glyph unicode="U" horiz-adv-x="784" d="M27 160q41 27 63.5 38t32.5 25.5t12 39t2 77.5v1016v36.5t-10 34.5l-78 -47l-14 31l192 115q20 -20 33.5 -47t13.5 -60v-899q0 -35 -1 -78t-12 -86t-34.5 -81.5t-66.5 -69.5q0 -18 13 -38t32.5 -35t44 -25.5t49.5 -10.5q4 0 31.5 18.5t62.5 43t69 50t50 40.5v1116 q0 16 -1 35.5t-11 34.5l-78 -48l-14 31l192 115q20 -20 32.5 -49t12.5 -62v-1231q0 -47 15.5 -66.5t54.5 -29.5l51 41l20 -22q-16 -16 -37.5 -37t-43 -39.5t-40 -32.5t-28.5 -22q-129 35 -176 127q27 10 38 34.5t11 59.5q-25 -18 -69 -51t-88 -67t-81 -62.5t-49 -40.5 q-4 -2 -10 -2q-43 6 -75 29.5t-54.5 51t-35.5 55t-21 44.5z" />
<glyph unicode="V" horiz-adv-x="724" d="M41 1419l201 111q20 -20 32.5 -47t12.5 -60v-41l229 150q37 -92 67.5 -194.5t53 -208t35 -212t12.5 -206.5q0 -68 -11 -142.5t-36 -147.5t-61.5 -139.5t-88.5 -119.5q-47 -47 -90 -79t-98 -87q-4 -2 -10 -2q-29 0 -62.5 22.5t-64.5 54t-55.5 67.5t-36.5 61 q45 29 62.5 61.5t19.5 97.5v1000q0 16 -2.5 36.5t-12.5 35.5l-82 -48zM211 238q10 -20 27.5 -43t39 -42.5t45 -31.5t48.5 -12q12 0 22 10q88 92 134 202.5t46 237.5q0 100 -13 212t-34.5 223.5t-49 220t-58.5 204.5l-131 -86v-950q0 -100 -76 -145z" />
<glyph unicode="W" horiz-adv-x="980" d="M-33 1403l199 127q20 -20 41.5 -55t21.5 -68v-53l281 184q20 -20 36.5 -50t16.5 -63v-65l246 180q37 -92 58.5 -216t31.5 -254t13 -258t3 -228q0 -68 -6 -126.5t-23.5 -112.5t-49 -104.5t-82.5 -103.5q-10 -10 -36 -36.5t-54 -53.5q-30 -27 -54 -47q-22 -18 -29 -18h-1 q-66 16 -111 52t-78 83q-20 -12 -47 -30.5t-54.5 -37t-53 -35t-41.5 -26.5q-27 2 -60 21.5t-62.5 44t-51 49t-23.5 38.5q39 16 58.5 40t28.5 48.5t10 47t1 36.5v1033q0 20 -10 43.5t-23 29.5l-83 -45zM127 190q6 -23 26.5 -43t44.5 -35q26 -16 50 -22q10 -3 18 -3q11 0 19 5 q59 33 87.5 60.5t40 54t12.5 53.5t3 57v539h-154l48 107h106l2 401q0 16 -3 33.5t-13 32.5l-185 -119v-926q0 -49 -30.5 -104.5t-71.5 -90.5zM502 197q31 -45 71.5 -73t85.5 -32q47 45 75 79t41 68.5t16.5 78.5t3.5 108q0 100 -3.5 232.5t-12.5 269.5t-26.5 266t-47.5 225 l-142 -98v-358h150l-47 -107h-103v-514q0 -29 -13 -66.5t-48 -78.5z" />
<glyph unicode="X" horiz-adv-x="675" d="M-156 -26q18 60 84 118t176 98q45 29 65.5 66t23.5 102v498h-97v107h97l2 383q0 16 -2.5 33.5t-12.5 31.5l-186 -96l-12 35l307 157q39 -39 39 -100v-41l229 150q41 -23 59.5 -87.5t21.5 -152.5q1 -20 1 -41q0 -71 -8 -147q-10 -100 -26.5 -191.5t-37 -165.5t-39.5 -108 l-32 14q14 25 24 86t14 140q4 65 4 135v32q-1 88 -10.5 166t-27 137.5t-45.5 79.5l-127 -86v-364h116v-107h-116v-473q0 -98 -78 -143q10 -20 39.5 -46t65.5 -47.5t72 -37t60 -15.5l21 10q20 11 45 26t46.5 30.5t23.5 27.5l26 -18q0 -12 -29.5 -34.5t-69.5 -49.5t-82 -53.5 t-67 -46.5q-4 -2 -10 -2q-25 0 -61.5 17t-74.5 44t-74 57.5t-56 57.5q-47 -18 -94 -53t-67 -76q-9 -19 -8 -38q0 -23 12 -48q24 -45 120 -82l-98 -82q-92 29 -128 81q-24 35 -24 73q0 20 6 39z" />
<glyph unicode="Y" horiz-adv-x="819" d="M39 1405l203 133q74 -186 124 -371.5t50 -390.5q0 -125 -46 -258t-132 -237q-6 -20 15 -51t54 -60t70 -49.5t63 -20.5q4 0 19.5 6.5t36 16.5t43 23.5t41.5 27.5v1194q0 16 -1 33.5t-12 32.5l-65 -39l-15 37l181 104q20 -20 32.5 -46.5t12.5 -59.5v-599t1 -407v-144.5 v-108.5v-80v-58q1 -47 1 -63.5v-28.5q-82 -72 -147.5 -156t-104.5 -172q-59 12 -117.5 48t-104.5 91t-73 126q-22 58 -22 125q0 15 1 30q45 -117 123 -186.5t205 -69.5q39 0 61.5 17.5t33 50t11.5 79.5t1 109l-2 117q-27 -18 -60 -41t-64.5 -46.5t-57 -43t-38.5 -31.5 q-4 -2 -10 -2q-29 0 -63.5 23.5t-68.5 57t-61.5 70.5t-39.5 64l-4 4l6 4q6 6 12 10t10 8q96 82 130 180.5t34 217.5q0 205 -42 405.5t-111 394.5l-95 -59z" />
<glyph unicode="Z" horiz-adv-x="534" d="M31 1356l92 180q20 -8 57 -8t79 3t87 6q19 1 37 1q24 0 44 -2q36 -4 58.5 -18.5t22.5 -42.5q0 -33 -38 -92.5t-87 -123t-95 -119t-65 -77.5q82 -84 142 -189q31 29 60.5 54.5t59.5 48.5l15 -23q-33 -27 -61.5 -54.5t-57.5 -55.5q57 -109 86 -227.5t29 -241.5 q0 -197 -68 -380t-201 -329l-10 10q-121 118 -161 258q-28 99 -28 200q0 42 4 83q16 143 79 281.5t149 251.5q-57 102 -131 194l-45 -45l-16 33q8 10 37.5 46t69.5 82t83 98t79 97t59.5 78t23.5 39q0 18 -33 24.5t-74 6.5t-80.5 -2t-52.5 -2q-23 0 -43 -2t-39 10l-35 -66z M124 258v-5q0 -113 42 -225q43 -114 135 -216q51 92 75.5 195t24.5 212q0 129 -31.5 254t-90.5 242q-74 -109 -114 -224.5t-41 -232.5z" />
<glyph unicode="[" horiz-adv-x="600" d="M236 -246v1673h299v-26q-37 -4 -74 -10.5t-72 -22.5v-1556q35 -14 72 -20.5t74 -10.5v-27h-299z" />
<glyph unicode="\" horiz-adv-x="770" d="M41 1538h119l569 -1630h-119z" />
<glyph unicode="]" horiz-adv-x="600" d="M66 -219q37 4 74.5 10t72.5 21v1556q-35 16 -72 22.5t-75 10.5v26h301v-1673h-301v27z" />
<glyph unicode="^" horiz-adv-x="741" d="M59 879q0 6 18.5 47t48.5 98t64.5 123.5t67.5 126t59.5 101.5t36.5 52q12 -10 40 -49t61.5 -92t70.5 -115.5t68 -120t52.5 -101.5t25.5 -62l-13 -27q-23 6 -65.5 48t-88.5 94.5t-87 102.5t-60 71q-18 -23 -56 -73t-82 -104.5t-84 -98.5t-60 -50q-16 12 -17 29z" />
<glyph unicode="`" d="M43 1395l29 166l229 -308l-29 -14q-59 39 -116.5 77t-112.5 79z" />
<glyph unicode="a" d="M25 80q12 10 26.5 19.5t14.5 25.5v362q0 10 -2.5 23.5t-12.5 19.5l-20 -12l-4 29q20 14 60 37.5t84 51.5t89 54.5t78 48.5v240q0 10 -19.5 22.5t-44 22.5t-48 17.5t-31.5 7.5q-6 0 -20.5 -9.5t-33.5 -21.5q33 -31 41 -76q4 -22 4 -45t-4 -46q-8 -46 -28.5 -88t-44.5 -69 l-23 -12q10 41 15 77q2 18 2.5 35.5t-2.5 35.5q-5 34 -23 71t-53 82l45 23q20 14 47.5 32.5t55.5 38t52.5 36.5t38.5 32q20 -4 56 -15.5t71 -27t64.5 -34.5t40.5 -38q-12 -6 -25.5 -11t-13.5 -28v-858q0 -20 18.5 -28.5t34.5 -8.5q20 0 41 10l6 -22l-113 -104 q-41 8 -77.5 27.5t-59.5 55.5q18 10 24.5 33t6.5 41q-43 -39 -86 -74.5t-78 -82.5q-41 8 -85 34.5t-64 65.5zM184 133q0 -10 3 -27.5t20 -17.5q12 0 30.5 11.5t38 25.5t36 28.5t26.5 22.5v529l-154 -97v-475z" />
<glyph unicode="b" horiz-adv-x="552" d="M25 1473l6 28q31 -20 51 -43.5t31 -60.5q23 49 65.5 85t100.5 36q51 0 92 -29t67 -70l-12 -18q-25 23 -56.5 41t-66.5 18q-39 0 -60.5 -22.5t-32.5 -56t-13 -70.5t-2 -64v-229l174 117q20 -76 47.5 -177.5t50 -209t39 -211t16.5 -183.5q0 -53 -10 -90t-29.5 -66.5 t-48 -56t-67.5 -57.5q-29 -23 -54.5 -48.5t-50.5 -49.5q-25 0 -59.5 15t-68.5 36.5t-60.5 46.5t-36.5 43q33 23 36 57.5t3 57.5v1058q0 16 -2 42t-7.5 51.5t-15.5 48t-26 31.5zM195 164q0 -16 11 -30.5t28.5 -25t36 -16.5t32.5 -6q31 0 54.5 15.5t40 40t24.5 53t8 53.5 q0 70 -18.5 176t-43 219t-51 218.5t-43.5 174.5l-79 -53v-819z" />
<glyph unicode="c" horiz-adv-x="415" d="M27 166q10 6 25.5 16.5t15.5 26.5l2 668v35.5t-11 33.5l-22 -12l-6 27l303 190q12 -39 33.5 -91t44.5 -106l-103 -73q-14 49 -30.5 94t-26.5 86l-64 -43l-2 -821q0 -20 17.5 -40t42 -35.5t50.5 -24.5t42 -9q10 0 25.5 8t21.5 19l6 -23l-108 -104q-4 -2 -11 -2 q-25 0 -62.5 20.5t-74.5 48t-67.5 58t-40.5 53.5z" />
<glyph unicode="d" horiz-adv-x="544" d="M35 135q25 14 33 40t8 61v620q0 10 -2 23.5t-13 19.5l-20 -12l-6 28l186 123q-37 80 -61 148q-23 66 -30 126q-2 20 -2 41q0 39 8 77q14 58 52 120h33q-28 -30 -27 -65q0 -31 9 -66q10 -41 37.5 -100t63.5 -136t75 -168t70.5 -193.5t51 -217.5t19.5 -235 q0 -80 -19.5 -131.5t-53 -91.5t-78.5 -75.5t-97 -84.5q-35 6 -72.5 23.5t-71.5 39t-58.5 45t-34.5 41.5zM195 166q0 -16 13 -30.5t31.5 -25t39 -16.5t32.5 -6q31 0 53.5 15.5t37 39t21.5 51t7 54.5q-2 190 -56.5 377.5t-137.5 382.5l-41 -29v-813z" />
<glyph unicode="e" horiz-adv-x="475" d="M37 166q10 6 25.5 16.5t15.5 26.5l2 715q0 12 -2 34.5t-12 32.5l-23 -10l-6 27l303 151q12 -39 31.5 -89t36 -102.5t29 -101.5t12.5 -86q0 -29 -5.5 -49t-27.5 -41l-217 -186l-2 -316q0 -16 17 -34.5t42 -33t49.5 -23.5t40.5 -9q10 0 26.5 8t22.5 19l6 -23l-108 -104 q-4 -2 -10 -2q-25 0 -63 20.5t-74.5 48t-67.5 58t-41 53.5zM199 551q20 18 44.5 35.5t45 36t34 41t13.5 53.5q0 39 -10.5 86t-24.5 94t-29.5 94t-25.5 88l-47 -20v-508z" />
<glyph unicode="f" horiz-adv-x="290" d="M-78 -289q37 18 64.5 50t46 70t28 80t9.5 81v1085h-93v37h93v213q0 14 -2 34.5t-13 31.5l-22 -13l-4 27l270 158q12 -37 25.5 -69t29.5 -69l-108 -51q-10 27 -18.5 51.5t-16.5 51.5l-23 -13v-352h105v-37h-105v-1081q0 -47 -24.5 -95t-63.5 -91t-86 -74t-90 -41z" />
<glyph unicode="g" horiz-adv-x="522" d="M-8 -289l346 283q-3 28 -3 56v14q1 36 1 71q-41 -39 -83 -74.5t-77 -80.5q-43 8 -86 34.5t-65 65.5q10 8 26.5 18.5t16.5 26.5v727q0 10 -2.5 23.5t-12.5 19.5l-20 -12l-6 28q86 51 167.5 102.5t153.5 119.5q43 -8 86 -36t64 -67q-27 -12 -35 -23.5t-8 -39.5v-922 q0 -43 14 -90t14 -90q0 -35 -14 -64.5t-37.5 -55.5t-50.5 -47.5t-51 -39.5q-8 -6 -26.5 -20.5t-38 -30t-38 -26.5t-26.5 -11q-25 0 -51.5 20.5t-53 43t-49 39t-41.5 8.5zM106 -244h9q18 0 35.5 -13t36 -29.5t38 -30t41.5 -13.5q29 0 48.5 13.5t30.5 34t16.5 45t5.5 49.5 q0 37 -6.5 74.5t-14.5 74.5zM186 133q0 -12 4.5 -28.5t20.5 -16.5q12 0 30.5 10.5t36 24.5t33 28.5t25.5 22.5v807q0 16 -18.5 28.5t-34.5 12.5q-18 0 -49 -19.5t-48 -29.5v-840z" />
<glyph unicode="h" horiz-adv-x="555" d="M25 1473l6 28q31 -20 51 -43.5t31 -60.5q23 49 65.5 85t100.5 36q51 0 92 -29t67 -70l-12 -18q-25 23 -56.5 41t-66.5 18q-39 0 -60.5 -22.5t-32.5 -56t-13 -70.5t-2 -64v-223l202 125q55 -209 93 -407q31 -160 31 -310q0 -36 -2 -72q-9 -184 -81.5 -352t-236.5 -315 l-19 14q92 94 142 205q50 110 66 230q11 82 11 166q-1 38 -3 77q-8 123 -27 240.5t-44.5 225t-41.5 196.5l-90 -56v-858q0 -23 13 -31t32 -8q18 0 39 10l6 -20l-109 -102q-39 8 -79 24.5t-60 52.5q10 6 24.5 17.5t14.5 25.5v1198q0 16 -2 42t-7.5 51.5t-15.5 48t-26 31.5z " />
<glyph unicode="i" horiz-adv-x="325" d="M47 80q10 6 25.5 16t15.5 25v876q0 14 -2 27.5t-10 24.5l-19 -13l-10 25l111 72q23 -10 36 -34t13 -52v-918q0 -20 18.5 -28.5t34.5 -8.5q18 0 39 10l6 -20l-108 -102q-41 8 -84 35.5t-66 64.5zM66 1593l139 -96q-10 -70 -23.5 -137.5t-27.5 -134.5l-31 -11z" />
<glyph unicode="j" horiz-adv-x="325" d="M-55 -289q37 18 63.5 49t44 69t26.5 80t9 81v1007q0 14 -2 25.5t-10 21.5l-25 -14l-10 25l119 78q20 -12 33.5 -36t13.5 -53v-1048q0 -47 -22.5 -96.5t-58.5 -92.5t-81 -74.5t-88 -41.5zM66 1593l139 -96q-10 -70 -23.5 -137.5t-27.5 -134.5l-31 -11z" />
<glyph unicode="k" horiz-adv-x="604" d="M25 1473l6 28q31 -20 51 -43.5t31 -60.5q23 49 65.5 85t100.5 36q51 0 92 -29t67 -70l-12 -18q-25 23 -56.5 41t-66.5 18q-39 0 -60.5 -16.5t-32.5 -41t-13 -55t-2 -57.5v-293l174 113q12 -39 33.5 -81t42 -84t35 -84t14.5 -79q0 -29 -22.5 -58.5t-45.5 -47.5l-59 -47 q51 -86 69.5 -179.5t26.5 -171t19.5 -129t52.5 -57.5q10 -2 19 2t19 8l9 -22l-105 -96q-41 2 -65.5 39.5t-40 95t-24.5 127t-17 132t-19.5 112t-31.5 67.5l-84 -72v-352q4 -20 19 -29.5t34 -9.5q18 0 39 10l6 -20l-109 -102q-39 8 -83 24.5t-64 52.5q10 6 24.5 17.5 t14.5 25.5v1198q0 16 -2 42t-7.5 51.5t-15.5 48t-26 31.5zM195 522l163 133q27 22 27 58q0 6 -1 12q-5 45 -24.5 97t-45 105.5t-35.5 94.5l-84 -55v-445z" />
<glyph unicode="l" horiz-adv-x="313" d="M14 1473l6 28q31 -20 53.5 -43.5t28.5 -60.5q16 49 52 85t79 36q78 0 101 -84l-25 -19q-23 53 -57 53q-23 0 -36 -24.5t-20.5 -58t-9.5 -72.5t-2 -66v-1122q0 -16 20 -23.5t32 -7.5q20 0 40 10l7 -20l-113 -102q-39 8 -82 17t-63 44q10 6 25.5 17.5t15.5 25.5v1214 q0 16 -2.5 42t-7.5 51.5t-15 48t-27 31.5z" />
<glyph unicode="m" horiz-adv-x="821" d="M49 1061l111 72q23 -10 36 -34t13 -52v-66q39 37 76.5 72t70.5 80q41 -4 73 -42q28 -34 28 -94v-16q39 37 76.5 73t72.5 79q39 -8 78 -36t57 -63q-10 -6 -24.5 -17t-14.5 -24v-862q0 -18 16.5 -27.5t33.5 -9.5q18 0 39 10l6 -20l-105 -102q-41 8 -84 36.5t-61 65.5 q10 6 23.5 14t13.5 25v854q0 10 -2 27.5t-19 17.5q-10 0 -25.5 -9t-30.5 -22.5t-28.5 -27l-21.5 -21.5v-811q0 -33 26.5 -41t44.5 2l7 -20l-91 -90q-41 8 -83 34.5t-62 63.5q10 6 24.5 15t14.5 26v856q0 10 -2 27.5t-19 17.5q-10 0 -25.5 -9t-30.5 -22.5t-29.5 -27 t-22.5 -21.5v-811q0 -29 22.5 -43t44.5 -2l7 -20l-86 -84q-39 8 -83 34.5t-63 63.5q27 14 33 23.5t6 37.5v856q0 14 -2 27.5t-10 24.5l-19 -13z" />
<glyph unicode="n" horiz-adv-x="591" d="M45 1061l111 72q23 -10 36 -34t13 -52v-33v-58q41 37 90 84t82 93q41 -8 82 -33t61 -60q-10 -6 -22.5 -24.5t-12.5 -30.5v-856q0 -18 16.5 -27.5t33.5 -9.5q18 0 38 10l9 -22l-109 -100q-41 8 -84 35.5t-61 64.5q10 6 24.5 16t14.5 25v864q0 10 -2.5 26.5t-18.5 16.5 q-12 0 -32.5 -14.5t-42 -32.5t-40 -36.5l-26.5 -26.5v-787q0 -39 26.5 -47t47.5 2l6 -20l-95 -84q-39 8 -83 34.5t-60 63.5q25 14 32 23t7 38v856q0 14 -2 27.5t-10 24.5l-19 -13z" />
<glyph unicode="o" horiz-adv-x="514" d="M35 135q25 14 33 40t8 61v620q0 10 -2 23.5t-13 19.5l-20 -12l-6 28l344 222q25 -78 43 -177.5t32.5 -204t21.5 -205.5t7 -183q0 -80 -13 -131.5t-40 -90.5t-66.5 -74.5t-91.5 -84.5q-35 6 -72.5 23.5t-71.5 39t-58.5 45t-34.5 41.5zM195 166q0 -16 13 -30.5t31.5 -25 t39 -16.5t32.5 -6q31 0 47.5 17.5t23.5 43t7 55v56.5q0 70 -9 173.5t-23.5 213t-32 214t-35.5 179.5l-94 -61v-813z" />
<glyph unicode="p" horiz-adv-x="512" d="M-70 -289q37 18 63.5 50t45 69t28 78t9.5 80v94q-29 27 -39 45q33 23 36 57.5t3 57.5v764q0 14 -2 27.5t-11 23.5l-20 -13l-8 25l106 68q29 -10 40.5 -31t13.5 -47v-41l170 119q27 -76 48 -178.5t35.5 -212t21.5 -215t7 -185.5q0 -53 -3 -89t-14 -63.5t-32.5 -53 t-60.5 -56.5q-29 -23 -54.5 -48.5t-50.5 -49.5q-33 0 -67 16v-10q0 -47 -25 -95.5t-62.5 -89t-85 -71.5t-90.5 -41zM195 156q4 -31 41.5 -50.5t66.5 -19.5q31 0 45 23.5t19.5 56.5t5.5 69.5v61.5q0 70 -9.5 168t-23.5 202.5t-31.5 202t-34.5 166.5l-79 -53v-827z" />
<glyph unicode="q" horiz-adv-x="555" d="M57 80q10 8 26.5 18.5t16.5 26.5v727q0 10 -2 23.5t-12 19.5l-20 -12l-7 28q86 51 168 102.5t154 119.5q43 -8 86 -36t63 -67q-27 -12 -35 -23t-8 -40v-969q0 -47 -24.5 -96t-62.5 -92t-85 -74t-90 -41l-2 16q37 18 63.5 50t45 69t28 78t9.5 80v35q-2 29 -1 56t1 56 q-41 -39 -83 -74.5t-77 -80.5q-43 8 -86 34.5t-66 65.5zM219 133q0 -12 4 -28.5t21 -16.5q12 0 30.5 10.5t36 24.5t32.5 28.5t26 22.5v807q0 16 -18.5 28.5t-35.5 12.5q-18 0 -48.5 -19.5t-47.5 -29.5v-840z" />
<glyph unicode="r" horiz-adv-x="466" d="M35 61q10 6 25.5 17.5t15.5 25.5v877q0 16 -3 37.5t-12 36.5l-18 -13l-8 23l104 68q27 -10 43.5 -39t12.5 -58l163 103q54 -94 66 -177q4 -32 5 -63q1 -51 -11 -101q-18 -81 -60.5 -163t-93.5 -174q12 88 28 159q14 72 22 140q4 37 5 75q1 33 -3 66q-6 72 -40 160 l-81 -57v-879q0 -20 15 -25.5t32 -5.5q18 0 39 10l6 -20l-109 -102q-39 8 -81 25.5t-62 53.5z" />
<glyph unicode="s" horiz-adv-x="475" d="M2 92q25 14 33 57.5t8 77.5v21l25 20l-2 -59q0 -16 24.5 -36.5t57 -39t64.5 -32t44 -13.5q31 0 50.5 13.5t29.5 34t13 46t3 51.5q0 68 -20.5 165.5t-40.5 205.5l-232 -160v461q0 10 -1 25.5t-11 21.5l-22 -8l-7 29l318 160q44 -33 68 -71q22 -35 22 -79v-7 q-2 -48 -27.5 -110.5t-79.5 -144.5l-22 -14q10 49 15 92q2 20 2 38q0 23 -3 45q-6 40 -23.5 79.5t-49.5 82.5l-60 -28v-441l217 130q0 -55 9.5 -94.5t18.5 -70t17.5 -58t8.5 -60.5q0 -80 -16.5 -140.5t-47.5 -109.5t-74 -93t-94 -93q-72 10 -133 40.5t-82 65.5z" />
<glyph unicode="t" horiz-adv-x="348" d="M0 1077v37h86v86l1 90q0 39 -28 78q31 2 55.5 20.5t49 38t53.5 36t68 16.5h13t13 -2l-2 -23q-41 -6 -61.5 -21.5t-30.5 -39t-11 -53t-1 -64.5v-162h143v-37h-143v-946q0 -20 18.5 -28.5t34.5 -8.5q18 0 39 10l4 -20l-108 -102q-37 8 -83.5 26.5t-64.5 54.5 q10 6 25.5 17.5t15.5 25.5v971h-86z" />
<glyph unicode="u" horiz-adv-x="571" d="M25 88q10 4 25.5 15.5t15.5 25.5v856q0 31 -15 51l-18 -12l-8 23l125 86q20 -16 27 -49t7 -60v-889v-11t3 -15.5t9.5 -13.5t18.5 -3q8 0 25.5 12.5t37 27.5t37 28.5t23.5 19.5v809q0 35 11 58.5t27.5 38t38.5 21.5t42 13v-985q0 -18 17.5 -25.5t33.5 -7.5q20 0 37 9 l8 -21l-111 -102q-39 8 -74.5 26.5t-56.5 55.5q16 14 21.5 36.5t5.5 43.5q-41 -35 -90 -78t-82 -84q-41 8 -82 35.5t-59 64.5z" />
<glyph unicode="v" horiz-adv-x="520" d="M45 1069l107 68q29 -10 40 -32t13 -48v-39l164 117q27 -76 50 -176.5t41.5 -207t29 -209t10.5 -182.5q0 -53 -5.5 -91t-18.5 -68.5t-36.5 -58t-62.5 -58.5q-29 -23 -54.5 -48.5t-50.5 -49.5q-25 0 -59.5 15t-68 36.5t-60.5 46.5t-37 43q33 23 36 57.5t3 57.5v764 q0 14 -2 27.5t-10 23.5l-21 -13zM205 156q0 -16 11 -28.5t28.5 -22t36 -14.5t32.5 -5q31 0 49.5 16.5t28.5 42t13.5 55t3.5 54.5q0 70 -13.5 175.5t-32 217t-40 216t-37.5 173.5l-80 -53v-827z" />
<glyph unicode="w" horiz-adv-x="780" d="M45 1061l111 72q23 -10 36 -34t13 -52v-43l198 126q35 -16 44.5 -51t9.5 -67l184 123q23 -76 40 -178.5t29.5 -210t18.5 -211t6 -183.5q0 -53 -3 -90t-15 -66.5t-35 -56t-61 -57.5q-29 -23 -54.5 -48.5t-50.5 -49.5q-23 0 -50.5 8t-56 20.5t-54 28.5t-42.5 33l-123 -92 q-39 8 -83 34.5t-60 63.5q25 14 32 23.5t7 37.5v856q0 14 -2 27.5t-10 24.5l-19 -13zM205 131q0 -18 12 -27.5t28.5 -11.5t34 1t27.5 7q25 23 28 55.5t3 53.5v795v23t-6 20l-127 -80v-836zM457 160q0 -16 10 -29.5t25.5 -24t33 -16.5t31.5 -6q31 0 46 15.5t22.5 40t8.5 53 t1 53.5q0 70 -7 176t-19.5 220t-28 219.5t-31.5 174.5l-92 -59v-817z" />
<glyph unicode="x" horiz-adv-x="579" d="M-2 43q47 29 89 69t58 109l211 821q14 14 36 32t42.5 33t40 28.5t31.5 19.5q18 -37 39.5 -79t25.5 -79l-100 -57q-4 25 -15.5 51.5t-31.5 61.5l-29 -23l-155 -629q-12 -47 -22.5 -103t-32 -111.5t-58.5 -105.5t-100 -85zM29 1030l121 113q18 -10 39.5 -28.5t35.5 -67.5 l244 -893q4 -18 18.5 -35t30.5 -17t33 11l12 -21l-104 -110q-35 8 -77 30.5t-60 59.5q16 10 26 28.5t4 36.5l-221 817q-8 20 -15 32.5t-13.5 20t-13.5 12.5t-17 11l-33 -24z" />
<glyph unicode="y" horiz-adv-x="559" d="M57 1061l111 72q23 -10 36 -34t13 -52v-66q41 37 78 71.5t70 80.5q41 -8 81.5 -33t61.5 -60q-10 -6 -22.5 -24.5t-12.5 -30.5v-1051q0 -47 -24.5 -95t-62.5 -91t-85 -73.5t-90 -41.5l-2 17q37 18 63.5 50t45 68.5t27.5 77.5t9 80v1059q0 10 -2 26.5t-18 16.5 q-12 0 -28.5 -10t-33 -24.5t-32 -29t-23.5 -22.5v-811q0 -39 26.5 -47t47.5 2l6 -20l-94 -84q-39 8 -83 34.5t-61 63.5q25 14 32 23.5t7 37.5v856q0 14 -2 27.5t-10 24.5l-18 -13z" />
<glyph unicode="z" horiz-adv-x="489" d="M4 956l111 166q29 -16 60.5 -21t64.5 -5q59 0 102 7t102 7h21l-270 -412q39 -35 71.5 -65.5t57.5 -63.5q16 12 31.5 24.5t31.5 22.5l23 -30q-16 -10 -32 -22.5t-32 -24.5q59 -90 78.5 -180.5t19.5 -188.5q0 -152 -69.5 -267.5t-171.5 -209.5l-4 -6q-103 95 -141 199 q-30 80 -29 160q1 24 3 48q12 104 63.5 201.5t129.5 181.5q-23 31 -49 59.5t-57 57.5l-66 -92l-28 18l315 467q-31 0 -51.5 -1t-36.5 -2t-31.5 -2t-34.5 -1q-29 0 -57.5 4t-50.5 21l-51 -66zM123 112v-10q-1 -80 31 -154q34 -80 112 -141q41 66 60.5 137.5t19.5 159.5 t-22.5 173t-73.5 163q-57 -74 -91 -158.5t-36 -169.5z" />
<glyph unicode="{" horiz-adv-x="600" d="M78 608v21q82 14 114.5 59t39 106.5t-2 131t-8.5 133.5q0 55 2 112.5t18.5 108.5t52.5 87t103 48q35 6 73 5t73 7v-28q-88 -4 -125 -58.5t-47.5 -130t-4 -157.5t6.5 -138q0 -49 -2 -97t-17.5 -88t-48.5 -68.5t-92 -38.5v-9q68 -10 101.5 -51t48 -102.5t13.5 -135 t-4 -149.5t-3 -146.5t15 -126t52 -89t107 -33.5v-27h-23q-82 0 -139 14.5t-93 49.5t-52.5 91t-16.5 140q0 98 3 196.5t3 196.5q0 80 -34.5 118t-112.5 48z" />
<glyph unicode="|" horiz-adv-x="1024" d="M457 -500v2024h112v-2024h-112z" />
<glyph unicode="}" horiz-adv-x="600" d="M59 -219q68 0 104 33.5t51 89t15 126t-3 146.5t-3 149.5t14.5 135t49.5 102.5t100 51v9q-90 16 -124 79.5t-39 148.5t4.5 180t3 176t-42 134.5t-130.5 57.5v28q33 -8 72 -7t74 -5q61 -10 98 -49t55.5 -94t24.5 -122t4 -132.5t-6 -123.5t-4 -99q0 -84 32.5 -118t112.5 -48 v-21q-68 -10 -98.5 -34.5t-41.5 -62.5t-8 -86t5 -101q2 -70 3 -138.5t1 -138.5q0 -90 -19.5 -147.5t-59.5 -90t-101.5 -44t-143.5 -11.5v27z" />
<glyph unicode="~" horiz-adv-x="1019" d="M125 745v103q55 49 123.5 93t146.5 44q49 0 89 -23.5t77 -51t76 -51t90 -23.5q14 0 37.5 12t48.5 27.5t46.5 32t33.5 26.5v-103q-29 -23 -57.5 -44t-57 -39.5t-61.5 -29.5t-72 -11q-51 0 -92 23.5t-79 51t-76 51t-83 23.5q-25 0 -50 -12.5t-51 -28.5t-48.5 -35.5 t-40.5 -34.5z" />
<glyph unicode="&#xa8;" d="M129 1593l137 -96q-10 -70 -23.5 -137.5t-27.5 -134.5l-31 -11zM295 1593l139 -96q-16 -68 -29.5 -136.5t-25.5 -135.5l-27 -11z" />
<glyph unicode="&#xa9;" horiz-adv-x="1478" d="M53 623q0 14 4 42.5t4 43.5q0 199 156 366q182 195 463 195h20q270 0 459 -209q166 -189 166 -410q0 -344 -225 -538q-174 -150 -377 -150q-291 0 -481 184q-188 184 -189 476zM158 614q-18 -221 174 -407q162 -160 362 -160q254 0 406 195q127 164 127 352v49 q0 229 -178 395q-158 145 -326 146q-231 0 -387 -131q-152 -129 -174 -387zM303 608q0 156 103 277q109 127 260 127q92 0 141 -15q57 -14 133 -57l29 43h28v-260h-28q-33 123 -90 174q-59 57 -185 57q-131 0 -194 -104q-53 -88 -54 -227q0 -158 76 -258t174 -93l27 2 q199 14 246 220h28v-248h-28l-29 43q-27 -25 -109 -49q-84 -23 -122 -23q-182 0 -295 105q-111 106 -111 286z" />
<glyph unicode="&#xab;" horiz-adv-x="811" d="M78 440q10 18 56 63.5t100.5 92.5t100.5 85t54 40l17 -16q-8 -33 -24.5 -68t-37 -70t-41.5 -67.5t-35 -63.5q14 -31 36 -66.5t41.5 -72.5t34.5 -74t19 -71l-14 -13q-10 4 -34.5 23.5t-56.5 49.5t-68 64.5t-66.5 66.5t-53 58.5t-28.5 38.5zM406 440q10 18 56 63.5 t100 92.5t100.5 85t54.5 40l14 -16q0 -10 -18.5 -48.5t-42 -83.5t-45 -84t-29.5 -53q14 -31 35.5 -66.5t41 -72.5t35 -74t19.5 -71l-14 -13q-10 4 -35 23.5t-56.5 49.5t-67.5 64.5t-66.5 66.5t-53 58.5t-28.5 38.5z" />
<glyph unicode="&#xad;" horiz-adv-x="364" d="M70 348v119l245 170v-119zM70 590v119l245 170v-119z" />
<glyph unicode="&#xae;" horiz-adv-x="1478" d="M53 623q0 14 4 42.5t4 43.5q0 199 156 366q182 195 463 195h20q270 0 459 -209q166 -189 166 -410q0 -344 -225 -538q-174 -150 -377 -150q-291 0 -481 184q-188 184 -189 476zM158 614q-18 -221 174 -407q162 -160 362 -160q254 0 406 195q127 164 127 352v49 q0 229 -178 395q-158 145 -326 146q-231 0 -387 -131q-152 -129 -174 -387zM403 303v43q53 0 68 8q23 16 23 64v461q0 49 -9 63q-14 27 -67 27v43h305q92 0 158 -47q74 -53 73 -144q0 -139 -161 -184q33 -20 90 -94q49 -63 72.5 -112.5t33.5 -63.5q23 -27 80 -35v-29h-176 q-8 55 -94 166q-16 20 -35 44t-41 52q-23 43 -129 43v-219q0 -49 49 -45l37 2v-43h-277zM594 651l39 -4q217 0 217 174q0 66 -51 107t-119 41q-49 0 -64 -6q-23 -12 -22 -56v-256z" />
<glyph unicode="&#xb4;" d="M43 1253l229 308l29 -166q-55 -41 -112.5 -79t-116.5 -77z" />
<glyph unicode="&#xb6;" horiz-adv-x="1148" d="M-18 969q0 170 143 252q115 66 301 65h651v-61q-84 0 -116 -13q-55 -23 -56 -86v-1249q0 -63 47 -86q27 -12 111 -12v-47h-625v47q92 0 109 10q23 16 22 102v713l-32 -4q-555 0 -555 369zM186 954q0 -137 107 -217q94 -74 235 -73l41 4v473q0 82 -86 82h-57 q-240 0 -240 -269zM690 -221h94v1444h-94v-1444z" />
<glyph unicode="&#xb8;" horiz-adv-x="1024" d="M340 -223l10 12q23 -8 44.5 -12t43.5 -4q35 0 63.5 17t28.5 50q0 16 -12 28.5t-31.5 21t-41 13.5t-35.5 7l39 94h75l-32 -80q59 -6 92.5 -27.5t33.5 -76.5q0 -25 -13 -42.5t-34.5 -28.5t-47 -16t-52.5 -5q-37 0 -70.5 14t-60.5 35z" />
<glyph unicode="&#xbb;" horiz-adv-x="811" d="M80 156q2 12 20.5 50t41 81t44 83t29.5 54q-33 70 -71 140.5t-60 144.5l14 12q14 -4 59.5 -44t97.5 -91t96 -98.5t57 -67.5q-6 -10 -31 -35t-57.5 -55.5t-70.5 -63.5t-71 -60.5t-56.5 -46t-27.5 -20.5zM408 156q2 10 20 48t42 82t45.5 84t29.5 54q-33 70 -72 140.5 t-61 144.5l14 12q10 -4 34.5 -23.5t56.5 -48t68 -63.5t66.5 -67t53 -58.5t30.5 -40.5q-6 -10 -30.5 -35t-57.5 -55.5t-70.5 -63.5t-70.5 -60.5t-56.5 -46t-27.5 -20.5z" />
<glyph unicode="&#xc0;" horiz-adv-x="706" d="M-78 -326q59 80 96 169t58.5 174t30 158t8.5 120v561h-117l57 107h60l-2 81q0 27 6 65t25.5 79t58.5 81t104 70q-25 -4 -55.5 -3t-62 9.5t-61.5 22.5t-50 37l-45 -39l-25 35q33 16 74 57t65 80q12 -18 33 -36.5t46.5 -34t56 -24.5t63.5 -9q27 0 58.5 6t62.5 19.5 t58.5 32.5t45.5 44h37l-8 -55v-518h117l-58 -107h-59v-696q0 -23 15.5 -41.5t54.5 -28.5l51 43l24 -24q-16 -16 -37.5 -37t-43 -39.5t-40 -32.5t-28.5 -23l-4 3q-66 16 -112 47.5t-68 78.5q23 14 34 25.5t15 25t4 34v55.5v610h-215v-561q0 -55 -21.5 -136t-62.5 -171 t-98.5 -179.5t-130.5 -158.5zM164 1653l29 166l229 -308l-29 -14q-59 39 -116.5 77t-112.5 79zM250 963h215v428q-78 -35 -121 -74t-63.5 -73t-25.5 -59.5t-5 -33.5v-188z" />
<glyph unicode="&#xc1;" horiz-adv-x="706" d="M-78 -326q59 80 96 169t58.5 174t30 158t8.5 120v561h-117l57 107h60l-2 81q0 27 6 65t25.5 79t58.5 81t104 70q-25 -4 -55.5 -3t-62 9.5t-61.5 22.5t-50 37l-45 -39l-25 35q33 16 74 57t65 80q12 -18 33 -36.5t46.5 -34t56 -24.5t63.5 -9q27 0 58.5 6t62.5 19.5 t58.5 32.5t45.5 44h37l-8 -55v-518h117l-58 -107h-59v-696q0 -23 15.5 -41.5t54.5 -28.5l51 43l24 -24q-16 -16 -37.5 -37t-43 -39.5t-40 -32.5t-28.5 -23l-4 3q-66 16 -112 47.5t-68 78.5q23 14 34 25.5t15 25t4 34v55.5v610h-215v-561q0 -55 -21.5 -136t-62.5 -171 t-98.5 -179.5t-130.5 -158.5zM250 963h215v428q-78 -35 -121 -74t-63.5 -73t-25.5 -59.5t-5 -33.5v-188zM272 1523l229 308l29 -166q-55 -41 -112.5 -79t-116.5 -77z" />
<glyph unicode="&#xc2;" horiz-adv-x="706" d="M-78 -326q59 80 96 169t58.5 174t30 158t8.5 120v561h-117l57 107h60l-2 81q0 27 6 65t25.5 79t58.5 81t104 70q-25 -4 -55.5 -3t-62 9.5t-61.5 22.5t-50 37l-45 -39l-25 35q33 16 74 57t65 80q12 -18 33 -36.5t46.5 -34t56 -24.5t63.5 -9q27 0 58.5 6t62.5 19.5 t58.5 32.5t45.5 44h37l-8 -55v-518h117l-58 -107h-59v-696q0 -23 15.5 -41.5t54.5 -28.5l51 43l24 -24q-16 -16 -37.5 -37t-43 -39.5t-40 -32.5t-28.5 -23l-4 3q-66 16 -112 47.5t-68 78.5q23 14 34 25.5t15 25t4 34v55.5v610h-215v-561q0 -55 -21.5 -136t-62.5 -171 t-98.5 -179.5t-130.5 -158.5zM135 1541l250 198h4l250 -198l-31 -11q-57 23 -112.5 43.5t-110.5 42.5q-53 -23 -107.5 -43t-111.5 -43zM250 963h215v428q-78 -35 -121 -74t-63.5 -73t-25.5 -59.5t-5 -33.5v-188z" />
<glyph unicode="&#xc3;" horiz-adv-x="706" d="M-78 -326q59 80 96 169t58.5 174t30 158t8.5 120v561h-117l57 107h60l-2 81q0 27 6 65t25.5 79t58.5 81t104 70q-25 -4 -55.5 -3t-62 9.5t-61.5 22.5t-50 37l-45 -39l-25 35q33 16 74 57t65 80q12 -18 33 -36.5t46.5 -34t56 -24.5t63.5 -9q27 0 58.5 6t62.5 19.5 t58.5 32.5t45.5 44h37l-8 -55v-518h117l-58 -107h-59v-696q0 -23 15.5 -41.5t54.5 -28.5l51 43l24 -24q-16 -16 -37.5 -37t-43 -39.5t-40 -32.5t-28.5 -23l-4 3q-66 16 -112 47.5t-68 78.5q23 14 34 25.5t15 25t4 34v55.5v610h-215v-561q0 -55 -21.5 -136t-62.5 -171 t-98.5 -179.5t-130.5 -158.5zM131 1592q12 14 28.5 34.5t37 40t43 34t44.5 14.5q29 0 46.5 -15.5t29.5 -35t25.5 -35t36.5 -15.5q31 0 49 24.5t37 49.5l16 -31q-23 -45 -63.5 -87t-83.5 -42q-27 0 -41.5 17.5t-26.5 37t-25.5 37t-35.5 17.5q-31 0 -57.5 -25.5t-47.5 -48.5z M250 963h215v428q-78 -35 -121 -74t-63.5 -73t-25.5 -59.5t-5 -33.5v-188z" />
<glyph unicode="&#xc4;" horiz-adv-x="706" d="M-78 -326q59 80 96 169t58.5 174t30 158t8.5 120v561h-117l57 107h60l-2 81q0 27 6 65t25.5 79t58.5 81t104 70q-25 -4 -55.5 -3t-62 9.5t-61.5 22.5t-50 37l-45 -39l-25 35q33 16 74 57t65 80q12 -18 33 -36.5t46.5 -34t56 -24.5t63.5 -9q27 0 58.5 6t62.5 19.5 t58.5 32.5t45.5 44h37l-8 -55v-518h117l-58 -107h-59v-696q0 -23 15.5 -41.5t54.5 -28.5l51 43l24 -24q-16 -16 -37.5 -37t-43 -39.5t-40 -32.5t-28.5 -23l-4 3q-66 16 -112 47.5t-68 78.5q23 14 34 25.5t15 25t4 34v55.5v610h-215v-561q0 -55 -21.5 -136t-62.5 -171 t-98.5 -179.5t-130.5 -158.5zM201 1890l137 -96q-10 -70 -23.5 -137.5t-27.5 -134.5l-31 -11zM250 963h215v428q-78 -35 -121 -74t-63.5 -73t-25.5 -59.5t-5 -33.5v-188zM367 1890l139 -96q-16 -68 -29.5 -136.5t-25.5 -135.5l-27 -11z" />
<glyph unicode="&#xc5;" horiz-adv-x="759" d="M-78 -326q59 80 96 169t58.5 174t30 158t8.5 120v561h-117l57 107h60l-2 81q0 27 6 65t25.5 79t58.5 81t104 70q-25 -4 -55.5 -3t-62 9.5t-61.5 22.5t-50 37l-45 -39l-25 35q33 16 74 57t65 80q12 -18 33 -36.5t46.5 -34t56 -24.5t63.5 -9q27 0 58.5 6t62.5 19.5 t58.5 32.5t45.5 44h37l-8 -55v-518h117l-58 -107h-59v-696q0 -23 15.5 -41.5t54.5 -28.5l51 43l24 -24q-16 -16 -37.5 -37t-43 -39.5t-40 -32.5t-28.5 -23l-4 3q-66 16 -112 47.5t-68 78.5q23 14 34 25.5t15 25t4 34v55.5v610h-215v-561q0 -55 -21.5 -136t-62.5 -171 t-98.5 -179.5t-130.5 -158.5zM215 1674q0 33 14 62.5t37.5 50t53.5 32.5t63 12q72 0 116.5 -46t44.5 -118t-45 -116.5t-116 -44.5q-72 0 -120 48t-48 120zM250 963h215v428q-78 -35 -121 -74t-63.5 -73t-25.5 -59.5t-5 -33.5v-188zM303 1645q10 -49 42.5 -82t63.5 -25 q33 6 45.5 45t1.5 95q-12 57 -40.5 89.5t-55.5 26.5q-37 -6 -53.5 -49t-3.5 -100z" />
<glyph unicode="&#xc6;" horiz-adv-x="1269" d="M-78 -326q59 80 96 169t58.5 174t30 158t8.5 120v561h-117l57 107h60l-2 81q0 27 6 61t25.5 69.5t58.5 72.5t104 68q-25 -4 -55.5 -3t-62 9t-61.5 22.5t-50 36.5l-45 -39l-25 35q33 16 74 57.5t65 79.5q12 -18 33 -36.5t46.5 -34t56 -24.5t63.5 -9q27 0 60.5 6t67.5 19.5 t63.5 33t48.5 43.5l22 2l-8 -45v-284q29 43 61.5 84t67.5 82l29 -27q-29 -37 -56.5 -78t-50 -95t-41 -128t-30.5 -174q0 -92 21.5 -175t57.5 -159q27 16 51.5 47t43 68t30 75.5t11.5 75.5v224h-131l38 108h93l2 148q-2 51 -5.5 94t-9.5 65q37 8 67 15.5t54.5 21.5t48 41 t47.5 76q18 -35 50 -73t79 -38q43 0 81 34t61 67q-8 -43 -19.5 -82t-33 -69t-55.5 -48t-83 -18q-41 0 -84 23.5t-73 57.5l-2 -210v-105h192l-39 -108h-155v-218q0 -43 -23 -90t-57.5 -90t-77.5 -75.5t-86 -45.5q66 -117 160 -211t202 -174q96 68 162 172l29 -32 q-59 -78 -131 -146.5t-152 -126.5q-82 57 -170 145.5t-160.5 193t-120 217t-47.5 222.5q0 29 3.5 55.5t7.5 55.5h-207v-561q0 -55 -21.5 -136t-62.5 -171t-98.5 -179.5t-130.5 -158.5zM250 963h215l10 409q-78 -35 -122 -65.5t-67.5 -54t-29.5 -41t-6 -25.5v-223z" />
<glyph unicode="&#xc7;" horiz-adv-x="890" d="M59 745q0 166 80 315.5t203 289.5l29 -27q-78 -104 -128 -226t-50 -249q0 -180 75 -336q27 16 50.5 47t41 68t27.5 75.5t10 75.5v484q-2 51 -7 93t-11 64q37 8 68.5 15.5t60.5 21.5t54.5 41t49.5 76q18 -35 50 -73t79 -38q43 0 81 34t61 67q-8 -43 -19.5 -82t-33 -69 t-55.5 -48t-83 -18q-41 0 -84 23.5t-73 57.5l-3 -210l-2 -431q0 -43 -22.5 -91t-58 -91t-79.5 -75.5t-87 -45.5q66 -117 154.5 -221t197.5 -184q47 35 93 88t79 104l33 -30q-59 -78 -131 -146.5t-152 -126.5q-82 57 -170 145.5t-160.5 193t-120 217t-47.5 222.5zM412 -153 l10 12q23 -8 44.5 -12t43.5 -4q35 0 63.5 17t28.5 50q0 16 -12 28.5t-31.5 21t-41 13.5t-35.5 7l39 94h75l-32 -80q59 -6 92.5 -27.5t33.5 -76.5q0 -25 -13 -42.5t-34.5 -28.5t-47 -16t-52.5 -5q-37 0 -70.5 14t-60.5 35z" />
<glyph unicode="&#xc8;" horiz-adv-x="890" d="M59 745q0 166 80 315.5t203 289.5l27 -23q-78 -104 -127 -228t-49 -251q0 -92 18 -179t55 -163q27 16 52.5 48t45 70t32 78.5t12.5 77.5v224h-132l39 108h93l2 148q-2 51 -5.5 94t-9.5 65q37 8 67 15.5t54.5 21.5t48 41t47.5 76q18 -35 50 -73t79 -38q43 0 81 34t61 67 q-8 -43 -19.5 -82t-33 -69t-55.5 -48t-83 -18q-41 0 -79 23.5t-68 57.5l-2 -210v-105h182l-39 -108h-145v-218q0 -43 -24.5 -92t-63.5 -93t-84 -78t-88 -46q66 -117 156.5 -216t199.5 -179q47 35 94 87t80 103l29 -32q-59 -78 -131 -146.5t-152 -126.5q-82 57 -170 145.5 t-160.5 193t-120 217t-47.5 222.5zM428 1717l29 166l229 -308l-29 -14q-59 39 -116.5 77t-112.5 79z" />
<glyph unicode="&#xc9;" horiz-adv-x="890" d="M59 745q0 166 80 315.5t203 289.5l27 -23q-78 -104 -127 -228t-49 -251q0 -92 18 -179t55 -163q27 16 52.5 48t45 70t32 78.5t12.5 77.5v224h-132l39 108h93l2 148q-2 51 -5.5 94t-9.5 65q37 8 67 15.5t54.5 21.5t48 41t47.5 76q18 -35 50 -73t79 -38q43 0 81 34t61 67 q-8 -43 -19.5 -82t-33 -69t-55.5 -48t-83 -18q-41 0 -79 23.5t-68 57.5l-2 -210v-105h182l-39 -108h-145v-218q0 -43 -24.5 -92t-63.5 -93t-84 -78t-88 -46q66 -117 156.5 -216t199.5 -179q47 35 94 87t80 103l29 -32q-59 -78 -131 -146.5t-152 -126.5q-82 57 -170 145.5 t-160.5 193t-120 217t-47.5 222.5zM438 1581l229 308l29 -166q-55 -41 -112.5 -79t-116.5 -77z" />
<glyph unicode="&#xca;" horiz-adv-x="890" d="M59 745q0 166 80 315.5t203 289.5l27 -23q-78 -104 -127 -228t-49 -251q0 -92 18 -179t55 -163q27 16 52.5 48t45 70t32 78.5t12.5 77.5v224h-132l39 108h93l2 148q-2 51 -5.5 94t-9.5 65q37 8 67 15.5t54.5 21.5t48 41t47.5 76q18 -35 50 -73t79 -38q43 0 81 34t61 67 q-8 -43 -19.5 -82t-33 -69t-55.5 -48t-83 -18q-41 0 -79 23.5t-68 57.5l-2 -210v-105h182l-39 -108h-145v-218q0 -43 -24.5 -92t-63.5 -93t-84 -78t-88 -46q66 -117 156.5 -216t199.5 -179q47 35 94 87t80 103l29 -32q-59 -78 -131 -146.5t-152 -126.5q-82 57 -170 145.5 t-160.5 193t-120 217t-47.5 222.5zM289 1577l250 198h4l250 -198l-31 -11q-57 23 -112.5 43.5t-110.5 42.5q-53 -23 -107.5 -43t-111.5 -43z" />
<glyph unicode="&#xcb;" horiz-adv-x="890" d="M59 745q0 166 80 315.5t203 289.5l27 -23q-78 -104 -127 -228t-49 -251q0 -92 18 -179t55 -163q27 16 52.5 48t45 70t32 78.5t12.5 77.5v224h-132l39 108h93l2 148q-2 51 -5.5 94t-9.5 65q37 8 67 15.5t54.5 21.5t48 41t47.5 76q18 -35 50 -73t79 -38q43 0 81 34t61 67 q-8 -43 -19.5 -82t-33 -69t-55.5 -48t-83 -18q-41 0 -79 23.5t-68 57.5l-2 -210v-105h182l-39 -108h-145v-218q0 -43 -24.5 -92t-63.5 -93t-84 -78t-88 -46q66 -117 156.5 -216t199.5 -179q47 35 94 87t80 103l29 -32q-59 -78 -131 -146.5t-152 -126.5q-82 57 -170 145.5 t-160.5 193t-120 217t-47.5 222.5zM303 1933l137 -96q-10 -70 -23.5 -137.5t-27.5 -134.5l-31 -11zM469 1933l139 -96q-16 -68 -29.5 -136.5t-25.5 -135.5l-27 -11z" />
<glyph unicode="&#xcc;" d="M25 528q0 70 6 138q14 -98 36.5 -195.5t56.5 -174.5t82 -125t116 -48q39 0 56 19.5t23.5 50t4 67.5t-2.5 72q0 61 -8 178t-10 260t6 299t43 297v4q-55 -39 -127 -39q-43 0 -91 19.5t-89 62.5l-41 -37l-23 33q29 16 67 56t60 77q23 -35 72 -67.5t109 -32.5q49 0 98 25.5 t82 72.5l20 2q-18 -100 -32.5 -247.5t-20.5 -320.5t1 -358.5t36 -363.5q-82 -72 -161 -143.5t-148 -157.5q-63 55 -106.5 121.5t-69 140.5t-35.5 153.5t-10 161.5zM180 1653l29 166l229 -308l-29 -14q-59 39 -116.5 77t-112.5 79z" />
<glyph unicode="&#xcd;" d="M25 528q0 70 6 138q14 -98 36.5 -195.5t56.5 -174.5t82 -125t116 -48q39 0 56 19.5t23.5 50t4 67.5t-2.5 72q0 61 -8 178t-10 260t6 299t43 297v4q-55 -39 -127 -39q-43 0 -91 19.5t-89 62.5l-41 -37l-23 33q29 16 67 56t60 77q23 -35 72 -67.5t109 -32.5q49 0 98 25.5 t82 72.5l20 2q-18 -100 -32.5 -247.5t-20.5 -320.5t1 -358.5t36 -363.5q-82 -72 -161 -143.5t-148 -157.5q-63 55 -106.5 121.5t-69 140.5t-35.5 153.5t-10 161.5zM238 1558l229 308l29 -166q-55 -41 -112.5 -79t-116.5 -77z" />
<glyph unicode="&#xce;" d="M25 528q0 70 6 138q14 -98 36.5 -195.5t56.5 -174.5t82 -125t116 -48q39 0 56 19.5t23.5 50t4 67.5t-2.5 72q0 61 -8 178t-10 260t6 299t43 297v4q-55 -39 -127 -39q-43 0 -91 19.5t-89 62.5l-41 -37l-23 33q29 16 67 56t60 77q23 -35 72 -67.5t109 -32.5q49 0 98 25.5 t82 72.5l20 2q-18 -100 -32.5 -247.5t-20.5 -320.5t1 -358.5t36 -363.5q-82 -72 -161 -143.5t-148 -157.5q-63 55 -106.5 121.5t-69 140.5t-35.5 153.5t-10 161.5zM63 1561l250 198h4l250 -198l-31 -11q-57 23 -112.5 43.5t-110.5 42.5q-53 -23 -107.5 -43t-111.5 -43z" />
<glyph unicode="&#xcf;" d="M25 528q0 70 6 138q14 -98 36.5 -195.5t56.5 -174.5t82 -125t116 -48q39 0 56 19.5t23.5 50t4 67.5t-2.5 72q0 61 -8 178t-10 260t6 299t43 297v4q-55 -39 -127 -39q-43 0 -91 19.5t-89 62.5l-41 -37l-23 33q29 16 67 56t60 77q23 -35 72 -67.5t109 -32.5q49 0 98 25.5 t82 72.5l20 2q-18 -100 -32.5 -247.5t-20.5 -320.5t1 -358.5t36 -363.5q-82 -72 -161 -143.5t-148 -157.5q-63 55 -106.5 121.5t-69 140.5t-35.5 153.5t-10 161.5zM213 1892l137 -96q-10 -70 -23.5 -137.5t-27.5 -134.5l-31 -11zM379 1892l139 -96q-16 -68 -29.5 -136.5 t-25.5 -135.5l-27 -11z" />
<glyph unicode="&#xd0;" horiz-adv-x="657" d="M-113 18q16 29 33 60t37 55.5t48 40.5t67 16q37 0 70.5 -12t66.5 -27.5t66.5 -27.5t70.5 -12q53 0 92 41t66.5 105.5t46 143t28 155.5t13.5 141.5t4 101.5q0 88 -9 192.5t-44 194.5t-101.5 150.5t-181.5 60.5q-86 0 -159.5 -27t-118.5 -106l-33 6q27 49 69.5 92t95 73.5 t110 49t112.5 18.5q113 0 182.5 -47t108.5 -124t52 -174t13 -197q0 -51 -11 -143.5t-33.5 -202t-57.5 -222t-81 -205t-105.5 -150.5t-129.5 -58q-35 0 -65.5 13t-61 29.5t-65.5 30t-76 13.5q-35 0 -51 -23t-39 -43zM45 442v119l117 92q-18 55 -39 107.5t-38 106t-28.5 108.5 t-11.5 115l223 237l37 -6l-135 -156q0 -113 36 -215t73 -207l106 84v-118l-76 -60q12 -47 20.5 -94t8.5 -96l-2 -66q-51 -29 -103.5 -80t-85.5 -98l-12 27l64 71q4 25 5 50.5t1 50.5q0 70 -17 141z" />
<glyph unicode="&#xd1;" horiz-adv-x="733" d="M18 1409l220 129q20 -20 34.5 -46t14.5 -58v-60q25 18 53.5 46t59 53.5t62.5 44t62 18.5q41 0 81 -29.5t74 -67.5t58.5 -75t34.5 -49q-33 -14 -53.5 -36t-32.5 -57.5t-16 -91t-4 -135.5v-809q0 -25 24.5 -51t61.5 -31l49 46l24 -27q-16 -16 -37.5 -36.5t-43 -39t-40 -33 t-28.5 -22.5q-66 16 -121 48t-78 79q45 29 49 70.5t4 113.5v51v670q0 33 1 67.5t11.5 68.5t33 63.5t63.5 52.5q-6 12 -25.5 37.5t-46 52.5t-56.5 47.5t-56 20.5q-37 0 -76 -32t-92 -73v-1143q0 -35 23.5 -55t60.5 -25l51 41l24 -24q-16 -16 -37.5 -36.5t-43 -39t-40 -33 t-28.5 -22.5q-66 16 -121 48t-78 79q45 29 48.5 75t5.5 111v53l-2 1012q0 16 -3.5 38t-25.5 26l-90 -54zM234 1630q12 14 28.5 34.5t37 40t43 34t44.5 14.5q29 0 46.5 -15.5t29.5 -35t25.5 -35t36.5 -15.5q31 0 49 24.5t37 49.5l16 -31q-23 -45 -63.5 -87t-83.5 -42 q-27 0 -41.5 17.5t-26.5 37t-25.5 37t-35.5 17.5q-31 0 -57.5 -25.5t-47.5 -48.5z" />
<glyph unicode="&#xd2;" horiz-adv-x="890" d="M59 764q0 168 80 321.5t201 294.5l29 -26q-78 -106 -130.5 -234.5t-52.5 -257.5q0 -131 26 -232.5t68 -190.5t92 -175t99 -186q55 43 104.5 100.5t86 124t57 138t20.5 143.5q0 82 -17 169t-47 176t-69 176t-80 167v-467q0 -45 -22.5 -94t-58 -94.5t-79.5 -79t-87 -48.5 l-11 25q63 45 102.5 127t39.5 158v641l116 94q49 -100 104.5 -195.5t102.5 -192.5t78 -198.5t31 -216.5q0 -121 -36 -232.5t-97.5 -210t-143.5 -183.5t-174 -152q-49 88 -106.5 187.5t-107.5 204t-84 209.5t-34 210zM397 1741l29 166l229 -308l-29 -14q-59 39 -116.5 77 t-112.5 79z" />
<glyph unicode="&#xd3;" horiz-adv-x="890" d="M59 764q0 168 80 321.5t201 294.5l29 -26q-78 -106 -130.5 -234.5t-52.5 -257.5q0 -131 26 -232.5t68 -190.5t92 -175t99 -186q55 43 104.5 100.5t86 124t57 138t20.5 143.5q0 82 -17 169t-47 176t-69 176t-80 167v-467q0 -45 -22.5 -94t-58 -94.5t-79.5 -79t-87 -48.5 l-11 25q63 45 102.5 127t39.5 158v641l116 94q49 -100 104.5 -195.5t102.5 -192.5t78 -198.5t31 -216.5q0 -121 -36 -232.5t-97.5 -210t-143.5 -183.5t-174 -152q-49 88 -106.5 187.5t-107.5 204t-84 209.5t-34 210zM375 1593l229 308l29 -166q-55 -41 -112.5 -79 t-116.5 -77z" />
<glyph unicode="&#xd4;" horiz-adv-x="890" d="M59 764q0 168 80 321.5t201 294.5l29 -26q-78 -106 -130.5 -234.5t-52.5 -257.5q0 -131 26 -232.5t68 -190.5t92 -175t99 -186q55 43 104.5 100.5t86 124t57 138t20.5 143.5q0 82 -17 169t-47 176t-69 176t-80 167v-467q0 -45 -22.5 -94t-58 -94.5t-79.5 -79t-87 -48.5 l-11 25q63 45 102.5 127t39.5 158v641l116 94q49 -100 104.5 -195.5t102.5 -192.5t78 -198.5t31 -216.5q0 -121 -36 -232.5t-97.5 -210t-143.5 -183.5t-174 -152q-49 88 -106.5 187.5t-107.5 204t-84 209.5t-34 210zM262 1594l250 198h4l250 -198l-31 -11 q-57 23 -112.5 43.5t-110.5 42.5q-53 -23 -107.5 -43t-111.5 -43z" />
<glyph unicode="&#xd5;" horiz-adv-x="890" d="M59 764q0 168 80 321.5t201 294.5l29 -26q-78 -106 -130.5 -234.5t-52.5 -257.5q0 -131 26 -232.5t68 -190.5t92 -175t99 -186q55 43 104.5 100.5t86 124t57 138t20.5 143.5q0 82 -17 169t-47 176t-69 176t-80 167v-467q0 -45 -22.5 -94t-58 -94.5t-79.5 -79t-87 -48.5 l-11 25q63 45 102.5 127t39.5 158v641l116 94q49 -100 104.5 -195.5t102.5 -192.5t78 -198.5t31 -216.5q0 -121 -36 -232.5t-97.5 -210t-143.5 -183.5t-174 -152q-49 88 -106.5 187.5t-107.5 204t-84 209.5t-34 210zM311 1649q12 14 28.5 34.5t37 40t43 34t44.5 14.5 q29 0 46.5 -15.5t29.5 -35t25.5 -35t36.5 -15.5q31 0 49 24.5t37 49.5l16 -31q-23 -45 -63.5 -87t-83.5 -42q-27 0 -41.5 17.5t-26.5 37t-25.5 37t-35.5 17.5q-31 0 -57.5 -25.5t-47.5 -48.5z" />
<glyph unicode="&#xd6;" horiz-adv-x="890" d="M59 764q0 168 80 321.5t201 294.5l29 -26q-78 -106 -130.5 -234.5t-52.5 -257.5q0 -131 26 -232.5t68 -190.5t92 -175t99 -186q55 43 104.5 100.5t86 124t57 138t20.5 143.5q0 82 -17 169t-47 176t-69 176t-80 167v-467q0 -45 -22.5 -94t-58 -94.5t-79.5 -79t-87 -48.5 l-11 25q63 45 102.5 127t39.5 158v641l116 94q49 -100 104.5 -195.5t102.5 -192.5t78 -198.5t31 -216.5q0 -121 -36 -232.5t-97.5 -210t-143.5 -183.5t-174 -152q-49 88 -106.5 187.5t-107.5 204t-84 209.5t-34 210zM358 1937l137 -96q-10 -70 -23.5 -137.5t-27.5 -134.5 l-31 -11zM524 1937l139 -96q-16 -68 -29.5 -136.5t-25.5 -135.5l-27 -11z" />
<glyph unicode="&#xd7;" horiz-adv-x="720" d="M117 442l172 172l-172 172l84 84l172 -172l172 172l84 -84l-172 -172l172 -172l-84 -84l-172 172l-172 -172z" />
<glyph unicode="&#xd8;" horiz-adv-x="890" d="M59 764q0 168 80 321.5t201 294.5l29 -26q-78 -106 -130.5 -234.5t-52.5 -257.5q0 -131 26 -232.5t68 -190.5t92 -175t99 -186q55 43 104.5 100.5t86 124t57 138t20.5 143.5q0 102 -26.5 210.5t-69.5 219.5q-57 -143 -107.5 -238.5t-95.5 -155t-85 -89t-76 -42.5l-11 25 q63 45 102.5 127t39.5 158v641l116 94q37 -78 77 -150.5t81 -144.5l123 277l74 2l-162 -344q53 -104 88 -212t35 -231q0 -121 -36 -232.5t-97.5 -210t-143.5 -183.5t-174 -152q-49 88 -106.5 187.5t-107.5 204t-84 209.5t-34 210zM526 883l88 200q-20 49 -42.5 96.5 t-45.5 92.5v-389z" />
<glyph unicode="&#xd9;" horiz-adv-x="784" d="M27 160q41 27 63.5 38t32.5 25.5t12 39t2 77.5v1016v36.5t-10 34.5l-78 -47l-14 31l192 115q20 -20 33.5 -47t13.5 -60v-899q0 -35 -1 -78t-12 -86t-34.5 -81.5t-66.5 -69.5q0 -18 13 -38t32.5 -35t44 -25.5t49.5 -10.5q4 0 31.5 18.5t62.5 43t69 50t50 40.5v1116 q0 16 -1 35.5t-11 34.5l-78 -48l-14 31l192 115q20 -20 32.5 -49t12.5 -62v-1231q0 -47 15.5 -66.5t54.5 -29.5l51 41l20 -22q-16 -16 -37.5 -37t-43 -39.5t-40 -32.5t-28.5 -22q-129 35 -176 127q27 10 38 34.5t11 59.5q-25 -18 -69 -51t-88 -67t-81 -62.5t-49 -40.5 q-4 -2 -10 -2q-43 6 -75 29.5t-54.5 51t-35.5 55t-21 44.5zM262 1805l29 166l229 -308l-29 -14q-59 39 -116.5 77t-112.5 79z" />
<glyph unicode="&#xda;" horiz-adv-x="784" d="M27 160q41 27 63.5 38t32.5 25.5t12 39t2 77.5v1016v36.5t-10 34.5l-78 -47l-14 31l192 115q20 -20 33.5 -47t13.5 -60v-899q0 -35 -1 -78t-12 -86t-34.5 -81.5t-66.5 -69.5q0 -18 13 -38t32.5 -35t44 -25.5t49.5 -10.5q4 0 31.5 18.5t62.5 43t69 50t50 40.5v1116 q0 16 -1 35.5t-11 34.5l-78 -48l-14 31l192 115q20 -20 32.5 -49t12.5 -62v-1231q0 -47 15.5 -66.5t54.5 -29.5l51 41l20 -22q-16 -16 -37.5 -37t-43 -39.5t-40 -32.5t-28.5 -22q-129 35 -176 127q27 10 38 34.5t11 59.5q-25 -18 -69 -51t-88 -67t-81 -62.5t-49 -40.5 q-4 -2 -10 -2q-43 6 -75 29.5t-54.5 51t-35.5 55t-21 44.5zM262 1663l229 308l29 -166q-55 -41 -112.5 -79t-116.5 -77z" />
<glyph unicode="&#xdb;" horiz-adv-x="784" d="M27 160q41 27 63.5 38t32.5 25.5t12 39t2 77.5v1016v36.5t-10 34.5l-78 -47l-14 31l192 115q20 -20 33.5 -47t13.5 -60v-899q0 -35 -1 -78t-12 -86t-34.5 -81.5t-66.5 -69.5q0 -18 13 -38t32.5 -35t44 -25.5t49.5 -10.5q4 0 31.5 18.5t62.5 43t69 50t50 40.5v1116 q0 16 -1 35.5t-11 34.5l-78 -48l-14 31l192 115q20 -20 32.5 -49t12.5 -62v-1231q0 -47 15.5 -66.5t54.5 -29.5l51 41l20 -22q-16 -16 -37.5 -37t-43 -39.5t-40 -32.5t-28.5 -22q-129 35 -176 127q27 10 38 34.5t11 59.5q-25 -18 -69 -51t-88 -67t-81 -62.5t-49 -40.5 q-4 -2 -10 -2q-43 6 -75 29.5t-54.5 51t-35.5 55t-21 44.5zM139 1670l250 198h4l250 -198l-31 -11q-57 23 -112.5 43.5t-110.5 42.5q-53 -23 -107.5 -43t-111.5 -43z" />
<glyph unicode="&#xdc;" horiz-adv-x="784" d="M27 160q41 27 63.5 38t32.5 25.5t12 39t2 77.5v1016v36.5t-10 34.5l-78 -47l-14 31l192 115q20 -20 33.5 -47t13.5 -60v-899q0 -35 -1 -78t-12 -86t-34.5 -81.5t-66.5 -69.5q0 -18 13 -38t32.5 -35t44 -25.5t49.5 -10.5q4 0 31.5 18.5t62.5 43t69 50t50 40.5v1116 q0 16 -1 35.5t-11 34.5l-78 -48l-14 31l192 115q20 -20 32.5 -49t12.5 -62v-1231q0 -47 15.5 -66.5t54.5 -29.5l51 41l20 -22q-16 -16 -37.5 -37t-43 -39.5t-40 -32.5t-28.5 -22q-129 35 -176 127q27 10 38 34.5t11 59.5q-25 -18 -69 -51t-88 -67t-81 -62.5t-49 -40.5 q-4 -2 -10 -2q-43 6 -75 29.5t-54.5 51t-35.5 55t-21 44.5zM240 2003l137 -96q-10 -70 -23.5 -137.5t-27.5 -134.5l-31 -11zM406 2003l139 -96q-16 -68 -29.5 -136.5t-25.5 -135.5l-27 -11z" />
<glyph unicode="&#xdd;" horiz-adv-x="819" d="M39 1405l203 133q74 -186 124 -371.5t50 -390.5q0 -125 -46 -258t-132 -237q-6 -20 15 -51t54 -60t70 -49.5t63 -20.5q4 0 19.5 6.5t36 16.5t43 23.5t41.5 27.5v1194q0 16 -1 33.5t-12 32.5l-65 -39l-15 37l181 104q20 -20 32.5 -46.5t12.5 -59.5v-599t1 -407t0 -253 t0 -138t1 -63.5v-28.5q-82 -72 -147.5 -156t-104.5 -172q-59 12 -117.5 48t-104.5 91t-73 126t-21 155q45 -117 123 -186.5t205 -69.5q39 0 61.5 17.5t33 50t11.5 79.5t1 109l-2 117q-27 -18 -60 -41t-64.5 -46.5t-57 -43t-38.5 -31.5q-4 -2 -10 -2q-29 0 -63.5 23.5 t-68.5 57t-61.5 70.5t-39.5 64l-4 4l6 4q6 6 12 10t10 8q96 82 130 180.5t34 217.5q0 205 -42 405.5t-111 394.5l-95 -59zM377 1505l229 308l29 -166q-55 -41 -112.5 -79t-116.5 -77z" />
<glyph unicode="&#xde;" horiz-adv-x="724" d="M-41 -326q59 80 96 169t58.5 174t30 158t8.5 120l2 749v302q0 16 -4.5 38.5t-14.5 36.5l-82 -47l-12 29l201 110q20 -20 32.5 -46.5t12.5 -59.5v-449l239 179q92 -88 133 -216t33 -264.5t-60 -268.5t-145 -226q-47 -47 -90 -79t-98 -87q-4 -2 -10 -2q-33 0 -72 29 q-41 -98 -102.5 -196.5t-141.5 -176.5zM266 168q25 -25 54.5 -42t58.5 -17q12 0 22 10q90 96 131 211.5t38 235.5t-45 236t-115 212l-123 -92v-627q0 -27 -5.5 -58.5t-15.5 -68.5z" />
<glyph unicode="&#xdf;" horiz-adv-x="606" d="M-70 -287q37 18 63.5 50t45 69t28 78t9.5 80v98q-31 25 -41 47q25 14 33 40t8 61v1089q0 16 -4 35.5t-15 32.5l-18 -13l-6 27l266 168q14 -37 28.5 -74t30.5 -74l-104 -47q-10 27 -19.5 52.5t-13.5 54.5l-26 -19l-19 -448l186 121q12 -37 37 -80t48.5 -88t41 -88 t17.5 -82q0 -25 -16.5 -51.5t-39 -51t-48 -45t-44.5 -32.5q92 -123 122 -217.5t13.5 -169t-76 -135t-145.5 -115.5q-39 6 -77 24v-14q0 -47 -25 -95t-62.5 -90t-85 -73t-90.5 -41zM176 981l19 -819q2 -16 15 -29.5t31.5 -23t38 -15.5t31.5 -6q49 0 70.5 28.5t23 72.5 t-14 100.5t-39 113t-52 105.5t-55.5 82q16 10 42.5 26.5t51 37t42 43t17.5 44.5q0 39 -13 78t-30.5 78t-37 76t-31.5 74z" />
<glyph unicode="&#xe0;" d="M25 80q12 10 26.5 19.5t14.5 25.5v362q0 10 -2.5 23.5t-12.5 19.5l-20 -12l-4 29q20 14 60 37.5t84 51.5t89 54.5t78 48.5v240q0 10 -19.5 22.5t-44 22.5t-48 17.5t-31.5 7.5q-6 0 -20.5 -9.5t-33.5 -21.5q33 -31 41 -76t0 -91t-28.5 -88t-44.5 -69l-23 -12q10 41 15 77 t0 70.5t-23 71.5t-53 82l45 23q20 14 47.5 32.5t55.5 38t52.5 36.5t38.5 32q20 -4 56 -15.5t71 -27t64.5 -34.5t40.5 -38q-12 -6 -25.5 -11t-13.5 -28v-858q0 -20 18.5 -28.5t34.5 -8.5q20 0 41 10l6 -22l-113 -104q-41 8 -77.5 27.5t-59.5 55.5q18 10 24.5 33t6.5 41 q-43 -39 -86 -74.5t-78 -82.5q-41 8 -85 34.5t-64 65.5zM162 1395l29 166l229 -308l-29 -14q-59 39 -116.5 77t-112.5 79zM184 133q0 -10 3 -27.5t20 -17.5q12 0 30.5 11.5t38 25.5t36 28.5t26.5 22.5v529l-154 -97v-475z" />
<glyph unicode="&#xe1;" d="M25 80q12 10 26.5 19.5t14.5 25.5v362q0 10 -2.5 23.5t-12.5 19.5l-20 -12l-4 29q20 14 60 37.5t84 51.5t89 54.5t78 48.5v240q0 10 -19.5 22.5t-44 22.5t-48 17.5t-31.5 7.5q-6 0 -20.5 -9.5t-33.5 -21.5q33 -31 41 -76t0 -91t-28.5 -88t-44.5 -69l-23 -12q10 41 15 77 t0 70.5t-23 71.5t-53 82l45 23q20 14 47.5 32.5t55.5 38t52.5 36.5t38.5 32q20 -4 56 -15.5t71 -27t64.5 -34.5t40.5 -38q-12 -6 -25.5 -11t-13.5 -28v-858q0 -20 18.5 -28.5t34.5 -8.5q20 0 41 10l6 -22l-113 -104q-41 8 -77.5 27.5t-59.5 55.5q18 10 24.5 33t6.5 41 q-43 -39 -86 -74.5t-78 -82.5q-41 8 -85 34.5t-64 65.5zM162 1253l229 308l29 -166q-55 -41 -112.5 -79t-116.5 -77zM184 133q0 -10 3 -27.5t20 -17.5q12 0 30.5 11.5t38 25.5t36 28.5t26.5 22.5v529l-154 -97v-475z" />
<glyph unicode="&#xe2;" d="M23 1229l250 198h4l250 -198l-31 -11q-57 23 -112.5 43.5t-110.5 42.5q-53 -23 -107.5 -43t-111.5 -43zM25 80q12 10 26.5 19.5t14.5 25.5v362q0 10 -2.5 23.5t-12.5 19.5l-20 -12l-4 29q20 14 60 37.5t84 51.5t89 54.5t78 48.5v240q0 10 -19.5 22.5t-44 22.5t-48 17.5 t-31.5 7.5q-6 0 -20.5 -9.5t-33.5 -21.5q33 -31 41 -76t0 -91t-28.5 -88t-44.5 -69l-23 -12q10 41 15 77t0 70.5t-23 71.5t-53 82l45 23q20 14 47.5 32.5t55.5 38t52.5 36.5t38.5 32q20 -4 56 -15.5t71 -27t64.5 -34.5t40.5 -38q-12 -6 -25.5 -11t-13.5 -28v-858 q0 -20 18.5 -28.5t34.5 -8.5q20 0 41 10l6 -22l-113 -104q-41 8 -77.5 27.5t-59.5 55.5q18 10 24.5 33t6.5 41q-43 -39 -86 -74.5t-78 -82.5q-41 8 -85 34.5t-64 65.5zM184 133q0 -10 3 -27.5t20 -17.5q12 0 30.5 11.5t38 25.5t36 28.5t26.5 22.5v529l-154 -97v-475z" />
<glyph unicode="&#xe3;" d="M25 80q12 10 26.5 19.5t14.5 25.5v362q0 10 -2.5 23.5t-12.5 19.5l-20 -12l-4 29q20 14 60 37.5t84 51.5t89 54.5t78 48.5v240q0 10 -19.5 22.5t-44 22.5t-48 17.5t-31.5 7.5q-6 0 -20.5 -9.5t-33.5 -21.5q33 -31 41 -76t0 -91t-28.5 -88t-44.5 -69l-23 -12q10 41 15 77 t0 70.5t-23 71.5t-53 82l45 23q20 14 47.5 32.5t55.5 38t52.5 36.5t38.5 32q20 -4 56 -15.5t71 -27t64.5 -34.5t40.5 -38q-12 -6 -25.5 -11t-13.5 -28v-858q0 -20 18.5 -28.5t34.5 -8.5q20 0 41 10l6 -22l-113 -104q-41 8 -77.5 27.5t-59.5 55.5q18 10 24.5 33t6.5 41 q-43 -39 -86 -74.5t-78 -82.5q-41 8 -85 34.5t-64 65.5zM64 1272q12 14 28.5 34.5t37 40t43 34t44.5 14.5q29 0 46.5 -15.5t29.5 -35t25.5 -35t36.5 -15.5q31 0 49 24.5t37 49.5l16 -31q-23 -45 -63.5 -87t-83.5 -42q-27 0 -41.5 17.5t-26.5 37t-25.5 37t-35.5 17.5 q-31 0 -57.5 -25.5t-47.5 -48.5zM184 133q0 -10 3 -27.5t20 -17.5q12 0 30.5 11.5t38 25.5t36 28.5t26.5 22.5v529l-154 -97v-475z" />
<glyph unicode="&#xe4;" d="M25 80q12 10 26.5 19.5t14.5 25.5v362q0 10 -2.5 23.5t-12.5 19.5l-20 -12l-4 29q20 14 60 37.5t84 51.5t89 54.5t78 48.5v240q0 10 -19.5 22.5t-44 22.5t-48 17.5t-31.5 7.5q-6 0 -20.5 -9.5t-33.5 -21.5q33 -31 41 -76t0 -91t-28.5 -88t-44.5 -69l-23 -12q10 41 15 77 t0 70.5t-23 71.5t-53 82l45 23q20 14 47.5 32.5t55.5 38t52.5 36.5t38.5 32q20 -4 56 -15.5t71 -27t64.5 -34.5t40.5 -38q-12 -6 -25.5 -11t-13.5 -28v-858q0 -20 18.5 -28.5t34.5 -8.5q20 0 41 10l6 -22l-113 -104q-41 8 -77.5 27.5t-59.5 55.5q18 10 24.5 33t6.5 41 q-43 -39 -86 -74.5t-78 -82.5q-41 8 -85 34.5t-64 65.5zM137 1593l137 -96q-10 -70 -23.5 -137.5t-27.5 -134.5l-31 -11zM184 133q0 -10 3 -27.5t20 -17.5q12 0 30.5 11.5t38 25.5t36 28.5t26.5 22.5v529l-154 -97v-475zM303 1593l139 -96q-16 -68 -29.5 -136.5 t-25.5 -135.5l-27 -11z" />
<glyph unicode="&#xe5;" d="M25 80q12 10 26.5 19.5t14.5 25.5v362q0 10 -2.5 23.5t-12.5 19.5l-20 -12l-4 29q20 14 60 37.5t84 51.5t89 54.5t78 48.5v240q0 10 -19.5 22.5t-44 22.5t-48 17.5t-31.5 7.5q-6 0 -20.5 -9.5t-33.5 -21.5q33 -31 41 -76t0 -91t-28.5 -88t-44.5 -69l-23 -12q10 41 15 77 t0 70.5t-23 71.5t-53 82l45 23q20 14 47.5 32.5t55.5 38t52.5 36.5t38.5 32q20 -4 56 -15.5t71 -27t64.5 -34.5t40.5 -38q-12 -6 -25.5 -11t-13.5 -28v-858q0 -20 18.5 -28.5t34.5 -8.5q20 0 41 10l6 -22l-113 -104q-41 8 -77.5 27.5t-59.5 55.5q18 10 24.5 33t6.5 41 q-43 -39 -86 -74.5t-78 -82.5q-41 8 -85 34.5t-64 65.5zM109 1366q0 33 14 62.5t37.5 50t53.5 32.5t63 12q72 0 116.5 -46t44.5 -118t-45 -116.5t-116 -44.5q-72 0 -120 48t-48 120zM184 133q0 -10 3 -27.5t20 -17.5q12 0 30.5 11.5t38 25.5t36 28.5t26.5 22.5v529l-154 -97 v-475zM197 1337q10 -49 42.5 -82t63.5 -25q33 6 45.5 45t1.5 95q-12 57 -40.5 89.5t-55.5 26.5q-37 -6 -53.5 -49t-3.5 -100z" />
<glyph unicode="&#xe6;" horiz-adv-x="686" d="M12 80q12 10 26.5 19.5t14.5 25.5v240q0 10 -2 23t-12 20l-21 -13l-4 29q20 14 60.5 37.5t84.5 51.5t89 54.5t78 48.5v363q0 10 -19.5 22.5t-44 22.5t-48.5 17.5t-32 7.5q-6 0 -20.5 -9.5t-32.5 -21.5q33 -31 41 -94.5t0 -133t-28.5 -131t-45.5 -88.5l-22 -12 q10 41 15 95.5t0 112.5t-23.5 114.5t-53.5 101.5l45 23q20 14 48 32.5t55.5 38t52.5 36.5t39 32q27 -4 70 -19.5t84 -35.5q2 0 3 -1.5t3 -1.5v-2l163 82q12 -39 32 -78.5t36 -79.5t28.5 -79t12.5 -76q0 -29 -5 -43t-28 -35l-217 -149v-445q0 -16 17.5 -34.5t42 -33t49 -23.5 t41.5 -9q10 0 26.5 8t22.5 19l6 -23l-109 -104q-16 -8 -51 2t-71.5 29.5t-68.5 43t-44 41.5q18 10 24.5 15.5t6.5 23.5q-43 -39 -86 -74.5t-78 -82.5q-41 8 -85 34.5t-65 65.5zM172 133q0 -10 3 -27.5t20 -17.5q12 0 30.5 11.5t38 25.5t36 28.5t26.5 22.5v406l-154 -97v-352 zM434 666q37 25 62.5 42t42 34.5t24.5 38t8 50.5q0 39 -10 70t-24.5 58.5t-29.5 57.5t-26 70l-47 -20v-401z" />
<glyph unicode="&#xe7;" horiz-adv-x="415" d="M27 166q10 6 25.5 16.5t15.5 26.5l2 668v35.5t-11 33.5l-22 -12l-6 27l303 190q12 -39 33.5 -91t44.5 -106l-103 -73q-14 49 -30.5 94t-26.5 86l-64 -43l-2 -821q0 -20 17.5 -40t42 -35.5t50.5 -24.5t42 -9q10 0 25.5 8t21.5 19l6 -23l-108 -104q-4 -2 -11 -2 q-25 0 -62.5 20.5t-74.5 48t-67.5 58t-40.5 53.5zM104 -207l10 12q23 -8 44.5 -12t43.5 -4q35 0 63.5 17t28.5 50q0 16 -12 28.5t-31.5 21t-41 13.5t-35.5 7l39 94h75l-32 -80q59 -6 92.5 -27.5t33.5 -76.5q0 -25 -13 -42.5t-34.5 -28.5t-47 -16t-52.5 -5q-37 0 -70.5 14 t-60.5 35z" />
<glyph unicode="&#xe8;" horiz-adv-x="493" d="M37 166q10 6 25.5 16.5t15.5 26.5l2 715q0 12 -2 34.5t-12 32.5l-23 -10l-6 27l303 151q12 -39 31.5 -89t36 -102.5t29 -101.5t12.5 -86q0 -29 -5.5 -49t-27.5 -41l-217 -186l-2 -316q0 -16 17 -34.5t42 -33t49.5 -23.5t40.5 -9q10 0 26.5 8t22.5 19l6 -23l-108 -104 q-4 -2 -10 -2q-25 0 -63 20.5t-74.5 48t-67.5 58t-41 53.5zM117 1395l29 166l229 -308l-29 -14q-59 39 -116.5 77t-112.5 79zM199 551q20 18 44.5 35.5t45 36t34 41t13.5 53.5q0 39 -10.5 86t-24.5 94t-29.5 94t-25.5 88l-47 -20v-508z" />
<glyph unicode="&#xe9;" horiz-adv-x="493" d="M37 166q10 6 25.5 16.5t15.5 26.5l2 715q0 12 -2 34.5t-12 32.5l-23 -10l-6 27l303 151q12 -39 31.5 -89t36 -102.5t29 -101.5t12.5 -86q0 -29 -5.5 -49t-27.5 -41l-217 -186l-2 -316q0 -16 17 -34.5t42 -33t49.5 -23.5t40.5 -9q10 0 26.5 8t22.5 19l6 -23l-108 -104 q-4 -2 -10 -2q-25 0 -63 20.5t-74.5 48t-67.5 58t-41 53.5zM117 1253l229 308l29 -166q-55 -41 -112.5 -79t-116.5 -77zM199 551q20 18 44.5 35.5t45 36t34 41t13.5 53.5q0 39 -10.5 86t-24.5 94t-29.5 94t-25.5 88l-47 -20v-508z" />
<glyph unicode="&#xea;" horiz-adv-x="493" d="M18 1260l250 198h4l250 -198l-31 -11q-57 23 -112.5 43.5t-110.5 42.5q-53 -23 -107.5 -43t-111.5 -43zM37 166q10 6 25.5 16.5t15.5 26.5l2 715q0 12 -2 34.5t-12 32.5l-23 -10l-6 27l303 151q12 -39 31.5 -89t36 -102.5t29 -101.5t12.5 -86q0 -29 -5.5 -49t-27.5 -41 l-217 -186l-2 -316q0 -16 17 -34.5t42 -33t49.5 -23.5t40.5 -9q10 0 26.5 8t22.5 19l6 -23l-108 -104q-4 -2 -10 -2q-25 0 -63 20.5t-74.5 48t-67.5 58t-41 53.5zM199 551q20 18 44.5 35.5t45 36t34 41t13.5 53.5q0 39 -10.5 86t-24.5 94t-29.5 94t-25.5 88l-47 -20v-508z " />
<glyph unicode="&#xeb;" horiz-adv-x="493" d="M37 166q10 6 25.5 16.5t15.5 26.5l2 715q0 12 -2 34.5t-12 32.5l-23 -10l-6 27l303 151q12 -39 31.5 -89t36 -102.5t29 -101.5t12.5 -86q0 -29 -5.5 -49t-27.5 -41l-217 -186l-2 -316q0 -16 17 -34.5t42 -33t49.5 -23.5t40.5 -9q10 0 26.5 8t22.5 19l6 -23l-108 -104 q-4 -2 -10 -2q-25 0 -63 20.5t-74.5 48t-67.5 58t-41 53.5zM94 1593l137 -96q-10 -70 -23.5 -137.5t-27.5 -134.5l-31 -11zM199 551q20 18 44.5 35.5t45 36t34 41t13.5 53.5q0 39 -10.5 86t-24.5 94t-29.5 94t-25.5 88l-47 -20v-508zM260 1593l139 -96q-16 -68 -29.5 -136.5 t-25.5 -135.5l-27 -11z" />
<glyph unicode="&#xec;" horiz-adv-x="325" d="M35 1395l29 166l229 -308l-29 -14q-59 39 -116.5 77t-112.5 79zM47 80q10 6 25.5 16t15.5 25v876q0 14 -2 27.5t-10 24.5l-19 -13l-10 25l111 72q23 -10 36 -34t13 -52v-918q0 -20 18.5 -28.5t34.5 -8.5q18 0 39 10l6 -20l-108 -102q-41 8 -84 35.5t-66 64.5z" />
<glyph unicode="&#xed;" horiz-adv-x="325" d="M35 1253l229 308l29 -166q-55 -41 -112.5 -79t-116.5 -77zM47 80q10 6 25.5 16t15.5 25v876q0 14 -2 27.5t-10 24.5l-19 -13l-10 25l111 72q23 -10 36 -34t13 -52v-918q0 -20 18.5 -28.5t34.5 -8.5q18 0 39 10l6 -20l-108 -102q-41 8 -84 35.5t-66 64.5z" />
<glyph unicode="&#xee;" horiz-adv-x="325" d="M-66 1260l250 198h4l250 -198l-31 -11q-57 23 -112.5 43.5t-110.5 42.5q-53 -23 -107.5 -43t-111.5 -43zM47 80q10 6 25.5 16t15.5 25v876q0 14 -2 27.5t-10 24.5l-19 -13l-10 25l111 72q23 -10 36 -34t13 -52v-918q0 -20 18.5 -28.5t34.5 -8.5q18 0 39 10l6 -20 l-108 -102q-41 8 -84 35.5t-66 64.5z" />
<glyph unicode="&#xef;" horiz-adv-x="325" d="M10 1593l137 -96q-10 -70 -23.5 -137.5t-27.5 -134.5l-31 -11zM47 80q10 6 25.5 16t15.5 25v876q0 14 -2 27.5t-10 24.5l-19 -13l-10 25l111 72q23 -10 36 -34t13 -52v-918q0 -20 18.5 -28.5t34.5 -8.5q18 0 39 10l6 -20l-108 -102q-41 8 -84 35.5t-66 64.5zM176 1593 l139 -96q-16 -68 -29.5 -136.5t-25.5 -135.5l-27 -11z" />
<glyph unicode="&#xf0;" horiz-adv-x="544" d="M35 135q25 14 33 40t8 61v620q0 10 -2 23.5t-13 19.5l-20 -12l-6 28l186 123q-10 23 -20.5 45.5t-18.5 44.5l-106 -73l-29 14l111 125q-35 98 -32 181t62 175h33q-27 -29 -27.5 -61.5t9.5 -69.5q6 -25 18 -54.5t29 -66.5l172 197l29 -166l-160 -121q37 -76 77 -169 t74.5 -199.5t56 -225t21.5 -245.5q0 -80 -19.5 -131.5t-53 -91.5t-78.5 -75.5t-97 -84.5q-35 6 -72.5 23.5t-71.5 39t-58.5 45t-34.5 41.5zM195 166q0 -16 13 -30.5t31.5 -25t39 -16.5t32.5 -6q31 0 53.5 15.5t37 39t21.5 51t7 54.5q-2 190 -56.5 377.5t-137.5 382.5 l-41 -29v-813z" />
<glyph unicode="&#xf1;" horiz-adv-x="577" d="M57 1061l111 72q23 -10 36 -34t13 -52v-33v-58q41 37 90 84t82 93q41 -8 82 -33t61 -60q-10 -6 -22.5 -24.5t-12.5 -30.5v-856q0 -18 16.5 -27.5t33.5 -9.5q18 0 38 10l9 -22l-109 -100q-41 8 -84 35.5t-61 64.5q10 6 24.5 16t14.5 25v864q0 10 -2.5 26.5t-18.5 16.5 q-12 0 -32.5 -14.5t-42 -32.5t-40 -36.5l-26.5 -26.5v-787q0 -39 26.5 -47t47.5 2l6 -20l-95 -84q-39 8 -83 34.5t-60 63.5q25 14 32 23t7 38v856q0 14 -2 27.5t-10 24.5l-19 -13zM135 1268q12 14 28.5 34.5t37 40t43 34t44.5 14.5q29 0 46.5 -15.5t29.5 -35t25.5 -35 t36.5 -15.5q31 0 49 24.5t37 49.5l16 -31q-23 -45 -63.5 -87t-83.5 -42q-27 0 -41.5 17.5t-26.5 37t-25.5 37t-35.5 17.5q-31 0 -57.5 -25.5t-47.5 -48.5z" />
<glyph unicode="&#xf2;" horiz-adv-x="544" d="M35 135q25 14 33 40t8 61v620q0 10 -2 23.5t-13 19.5l-20 -12l-6 28l344 222q25 -78 43 -177.5t32.5 -204t21.5 -205.5t7 -183q0 -80 -13 -131.5t-40 -90.5t-66.5 -74.5t-91.5 -84.5q-35 6 -72.5 23.5t-71.5 39t-58.5 45t-34.5 41.5zM143 1395l29 166l229 -308l-29 -14 q-59 39 -116.5 77t-112.5 79zM195 166q0 -16 13 -30.5t31.5 -25t39 -16.5t32.5 -6q31 0 47.5 17.5t23.5 43t7 55v56.5q0 70 -9 173.5t-23.5 213t-32 214t-35.5 179.5l-94 -61v-813z" />
<glyph unicode="&#xf3;" horiz-adv-x="544" d="M35 135q25 14 33 40t8 61v620q0 10 -2 23.5t-13 19.5l-20 -12l-6 28l344 222q25 -78 43 -177.5t32.5 -204t21.5 -205.5t7 -183q0 -80 -13 -131.5t-40 -90.5t-66.5 -74.5t-91.5 -84.5q-35 6 -72.5 23.5t-71.5 39t-58.5 45t-34.5 41.5zM143 1253l229 308l29 -166 q-55 -41 -112.5 -79t-116.5 -77zM195 166q0 -16 13 -30.5t31.5 -25t39 -16.5t32.5 -6q31 0 47.5 17.5t23.5 43t7 55v56.5q0 70 -9 173.5t-23.5 213t-32 214t-35.5 179.5l-94 -61v-813z" />
<glyph unicode="&#xf4;" horiz-adv-x="544" d="M35 135q25 14 33 40t8 61v620q0 10 -2 23.5t-13 19.5l-20 -12l-6 28l344 222q25 -78 43 -177.5t32.5 -204t21.5 -205.5t7 -183q0 -80 -13 -131.5t-40 -90.5t-66.5 -74.5t-91.5 -84.5q-35 6 -72.5 23.5t-71.5 39t-58.5 45t-34.5 41.5zM43 1260l250 198h4l250 -198l-31 -11 q-57 23 -112.5 43.5t-110.5 42.5q-53 -23 -107.5 -43t-111.5 -43zM195 166q0 -16 13 -30.5t31.5 -25t39 -16.5t32.5 -6q31 0 47.5 17.5t23.5 43t7 55v56.5q0 70 -9 173.5t-23.5 213t-32 214t-35.5 179.5l-94 -61v-813z" />
<glyph unicode="&#xf5;" horiz-adv-x="544" d="M35 135q25 14 33 40t8 61v620q0 10 -2 23.5t-13 19.5l-20 -12l-6 28l344 222q25 -78 43 -177.5t32.5 -204t21.5 -205.5t7 -183q0 -80 -13 -131.5t-40 -90.5t-66.5 -74.5t-91.5 -84.5q-35 6 -72.5 23.5t-71.5 39t-58.5 45t-34.5 41.5zM121 1268q12 14 28.5 34.5t37 40 t43 34t44.5 14.5q29 0 46.5 -15.5t29.5 -35t25.5 -35t36.5 -15.5q31 0 49 24.5t37 49.5l16 -31q-23 -45 -63.5 -87t-83.5 -42q-27 0 -41.5 17.5t-26.5 37t-25.5 37t-35.5 17.5q-31 0 -57.5 -25.5t-47.5 -48.5zM195 166q0 -16 13 -30.5t31.5 -25t39 -16.5t32.5 -6 q31 0 47.5 17.5t23.5 43t7 55v56.5q0 70 -9 173.5t-23.5 213t-32 214t-35.5 179.5l-94 -61v-813z" />
<glyph unicode="&#xf6;" horiz-adv-x="526" d="M17 135q25 14 33 40t8 61v620q0 10 -2 23.5t-13 19.5l-20 -12l-6 28l344 222q25 -78 43 -177.5t32.5 -204t21.5 -205.5t7 -183q0 -80 -13 -131.5t-40 -90.5t-66.5 -74.5t-91.5 -84.5q-35 6 -72.5 23.5t-71.5 39t-58.5 45t-34.5 41.5zM111 1593l137 -96 q-10 -70 -23.5 -137.5t-27.5 -134.5l-31 -11zM177 166q0 -16 13 -30.5t31.5 -25t39 -16.5t32.5 -6q31 0 47.5 17.5t23.5 43t7 55v56.5q0 70 -9 173.5t-23.5 213t-32 214t-35.5 179.5l-94 -61v-813zM277 1593l139 -96q-16 -68 -29.5 -136.5t-25.5 -135.5l-27 -11z" />
<glyph unicode="&#xf7;" horiz-adv-x="602" d="M29 426v152h530v-152h-530zM184 223q0 47 36 80t83 33q41 0 70.5 -31t29.5 -72q0 -59 -33.5 -84.5t-88.5 -25.5q-39 0 -68 31.5t-29 68.5zM184 764q0 47 36 80t83 33q41 0 70.5 -31t29.5 -72q0 -59 -33.5 -84.5t-88.5 -25.5q-39 0 -68 31.5t-29 68.5z" />
<glyph unicode="&#xf8;" horiz-adv-x="544" d="M0 -4l51 115q-12 16 -16 24q25 14 33 40t8 61v620q0 10 -2 23.5t-13 19.5l-20 -12l-6 28l344 222q12 -41 25.5 -89.5t25.5 -99.5l84 185h45l-113 -250q31 -133 52.5 -269.5t21.5 -244.5q0 -80 -19.5 -131.5t-53 -91.5t-78.5 -75.5t-97 -84.5q-49 8 -101 35.5t-89 60.5 l-39 -86h-43zM195 166q0 -16 13 -30.5t31.5 -25t39 -16.5t32.5 -6q31 0 53.5 15.5t37 39t21.5 51t7 54.5q0 39 -5 91t-14.5 111.5t-21.5 124t-24 127.5l-170 -372v-164zM195 426l155 344l-61 270l-94 -61v-553z" />
<glyph unicode="&#xf9;" horiz-adv-x="559" d="M25 88q10 4 25.5 15.5t15.5 25.5v856q0 31 -15 51l-18 -12l-8 23l125 86q20 -16 27 -49t7 -60v-889v-11t3 -15.5t9.5 -13.5t18.5 -3q8 0 25.5 12.5t37 27.5t37 28.5t23.5 19.5v809q0 35 11 58.5t27.5 38t38.5 21.5t42 13v-985q0 -18 17.5 -25.5t33.5 -7.5q20 0 37 9 l8 -21l-111 -102q-39 8 -74.5 26.5t-56.5 55.5q16 14 21.5 36.5t5.5 43.5q-41 -35 -90 -78t-82 -84q-41 8 -82 35.5t-59 64.5zM149 1395l29 166l229 -308l-29 -14q-59 39 -116.5 77t-112.5 79z" />
<glyph unicode="&#xfa;" horiz-adv-x="559" d="M25 88q10 4 25.5 15.5t15.5 25.5v856q0 31 -15 51l-18 -12l-8 23l125 86q20 -16 27 -49t7 -60v-889v-11t3 -15.5t9.5 -13.5t18.5 -3q8 0 25.5 12.5t37 27.5t37 28.5t23.5 19.5v809q0 35 11 58.5t27.5 38t38.5 21.5t42 13v-985q0 -18 17.5 -25.5t33.5 -7.5q20 0 37 9 l8 -21l-111 -102q-39 8 -74.5 26.5t-56.5 55.5q16 14 21.5 36.5t5.5 43.5q-41 -35 -90 -78t-82 -84q-41 8 -82 35.5t-59 64.5zM149 1253l229 308l29 -166q-55 -41 -112.5 -79t-116.5 -77z" />
<glyph unicode="&#xfb;" horiz-adv-x="559" d="M25 88q10 4 25.5 15.5t15.5 25.5v856q0 31 -15 51l-18 -12l-8 23l125 86q20 -16 27 -49t7 -60v-889v-11t3 -15.5t9.5 -13.5t18.5 -3q8 0 25.5 12.5t37 27.5t37 28.5t23.5 19.5v809q0 35 11 58.5t27.5 38t38.5 21.5t42 13v-985q0 -18 17.5 -25.5t33.5 -7.5q20 0 37 9 l8 -21l-111 -102q-39 8 -74.5 26.5t-56.5 55.5q16 14 21.5 36.5t5.5 43.5q-41 -35 -90 -78t-82 -84q-41 8 -82 35.5t-59 64.5zM51 1260l250 198h4l250 -198l-31 -11q-57 23 -112.5 43.5t-110.5 42.5q-53 -23 -107.5 -43t-111.5 -43z" />
<glyph unicode="&#xfc;" horiz-adv-x="542" d="M25 88q10 4 25.5 15.5t15.5 25.5v856q0 31 -15 51l-18 -12l-8 23l125 86q20 -16 27 -49t7 -60v-889v-11t3 -15.5t9.5 -13.5t18.5 -3q8 0 25.5 12.5t37 27.5t37 28.5t23.5 19.5v809q0 35 11 58.5t27.5 38t38.5 21.5t42 13v-985q0 -18 17.5 -25.5t33.5 -7.5q20 0 37 9 l8 -21l-111 -102q-39 8 -74.5 26.5t-56.5 55.5q16 14 21.5 36.5t5.5 43.5q-41 -35 -90 -78t-82 -84q-41 8 -82 35.5t-59 64.5zM119 1593l137 -96q-10 -70 -23.5 -137.5t-27.5 -134.5l-31 -11zM285 1593l139 -96q-16 -68 -29.5 -136.5t-25.5 -135.5l-27 -11z" />
<glyph unicode="&#xfd;" horiz-adv-x="559" d="M57 1061l111 72q23 -10 36 -34t13 -52v-66q41 37 78 71.5t70 80.5q41 -8 81.5 -33t61.5 -60q-10 -6 -22.5 -24.5t-12.5 -30.5v-1051q0 -47 -24.5 -95t-62.5 -91t-85 -73.5t-90 -41.5l-2 17q37 18 63.5 50t45 68.5t27.5 77.5t9 80v1059q0 10 -2 26.5t-18 16.5 q-12 0 -28.5 -10t-33 -24.5t-32 -29t-23.5 -22.5v-811q0 -39 26.5 -47t47.5 2l6 -20l-94 -84q-39 8 -83 34.5t-61 63.5q25 14 32 23.5t7 37.5v856q0 14 -2 27.5t-10 24.5l-18 -13zM149 1253l229 308l29 -166q-55 -41 -112.5 -79t-116.5 -77z" />
<glyph unicode="&#xfe;" horiz-adv-x="516" d="M-70 -289q37 18 63.5 50t45 69t28 78t9.5 80v94q-29 27 -39 45q33 23 36 57.5t3 57.5v1061q0 16 -2 41.5t-7.5 51t-15.5 48t-26 31.5l6 28q31 -20 51 -43.5t31 -60.5q23 49 65.5 85t100.5 36q51 0 92 -29t67 -70l-12 -18q-25 23 -56.5 41t-66.5 18q-39 0 -60.5 -22.5 t-32.5 -56t-13 -70.5t-2 -64v-231l163 117q27 -76 51.5 -179.5t44 -214t31 -216t11.5 -185.5q0 -53 -6.5 -88t-20.5 -61.5t-38.5 -51t-63.5 -55.5q-29 -23 -54.5 -48.5t-50.5 -49.5q-33 0 -67 16v-10q0 -47 -25 -95.5t-62.5 -89t-85 -71.5t-90.5 -41zM195 156 q4 -31 41.5 -50.5t66.5 -19.5q31 0 50.5 13.5t30.5 35t15 48t4 50.5q0 70 -14 178.5t-33.5 224.5t-42 223.5t-39.5 176.5l-79 -53v-827z" />
<glyph unicode="&#xff;" horiz-adv-x="559" d="M57 1061l111 72q23 -10 36 -34t13 -52v-66q41 37 78 71.5t70 80.5q41 -8 81.5 -33t61.5 -60q-10 -6 -22.5 -24.5t-12.5 -30.5v-1051q0 -47 -24.5 -95t-62.5 -91t-85 -73.5t-90 -41.5l-2 17q37 18 63.5 50t45 68.5t27.5 77.5t9 80v1059q0 10 -2 26.5t-18 16.5 q-12 0 -28.5 -10t-33 -24.5t-32 -29t-23.5 -22.5v-811q0 -39 26.5 -47t47.5 2l6 -20l-94 -84q-39 8 -83 34.5t-61 63.5q25 14 32 23.5t7 37.5v856q0 14 -2 27.5t-10 24.5l-18 -13zM127 1593l137 -96q-10 -70 -23.5 -137.5t-27.5 -134.5l-31 -11zM293 1593l139 -96 q-16 -68 -29.5 -136.5t-25.5 -135.5l-27 -11z" />
<glyph unicode="&#x152;" horiz-adv-x="1556" d="M59 745q0 166 80 315.5t203 289.5l29 -27q-78 -104 -128 -226t-50 -249q0 -92 21.5 -177t55.5 -169q35 18 61.5 50t44 69.5t27 78.5t9.5 80v703l118 92q66 -135 142 -277.5t125 -291.5q37 92 96 176t131 168l29 -27q-78 -104 -128.5 -226t-50.5 -249q0 -92 22 -175 t58 -159q27 16 51.5 47t43 68t30 75.5t11.5 75.5v224h-132l39 108h93l2 148q-2 51 -5.5 94t-9.5 65q37 8 67 15.5t54.5 21.5t48 41t47.5 76q18 -35 50 -73t79 -38q43 0 81 34t61 67q-8 -43 -19.5 -82t-33 -69t-55.5 -48t-83 -18q-41 0 -84 23.5t-73 57.5l-3 -210v-105h193 l-39 -108h-156v-218q0 -43 -22.5 -90t-57 -90t-77.5 -75.5t-86 -45.5q66 -117 160 -211t202 -174q96 68 162 172l29 -32q-59 -78 -131 -146.5t-152 -126.5q-57 41 -117.5 96.5t-118 121t-107.5 139t-87 151.5q-53 -160 -165 -292t-251 -230q-49 86 -106.5 183t-108.5 198.5 t-85 205t-34 205.5zM279 483q45 -104 101 -201.5t105 -195.5q55 41 103.5 95.5t83.5 116.5t54 132t19 139q0 78 -20 160t-51 165t-69 166t-75 163v-437q0 -47 -22.5 -96t-58 -92t-80.5 -74.5t-90 -40.5z" />
<glyph unicode="&#x153;" horiz-adv-x="743" d="M25 80q12 10 26.5 19.5t14.5 25.5v727q0 10 -2.5 23.5t-12.5 19.5l-20 -12l-4 28q84 51 165.5 102.5t153.5 119.5q37 -8 58.5 -30t37.5 -52l156 86q12 -39 31.5 -89.5t36 -102.5t29 -101t12.5 -86q0 -29 -5.5 -49.5t-27.5 -40.5l-217 -187v-293q0 -16 17.5 -34.5t42 -33 t49 -23.5t40.5 -9q10 0 26.5 8t22.5 19l7 -23l-109 -104q-4 -2 -10 -2q-23 0 -52.5 15t-58.5 37.5t-54.5 49.5t-39.5 49q-43 -39 -86 -74.5t-78 -82.5q-41 8 -85 34.5t-64 65.5zM184 133q0 -10 3 -27.5t20 -17.5q12 0 30.5 11.5t38 25.5t36 28.5t26.5 22.5v803 q0 23 -20.5 33t-36.5 10q-10 0 -22.5 -6t-27 -13.5t-26.5 -15.5l-21 -14v-840zM459 528q20 18 44.5 36t45 36t34 41t13.5 53q0 39 -10.5 85t-24.5 93.5t-29.5 93.5t-25.5 87l-45 -25z" />
<glyph unicode="&#x178;" horiz-adv-x="819" d="M39 1405l203 133q74 -186 124 -371.5t50 -390.5q0 -125 -46 -258t-132 -237q-6 -20 15 -51t54 -60t70 -49.5t63 -20.5q4 0 19.5 6.5t36 16.5t43 23.5t41.5 27.5v1194q0 16 -1 33.5t-12 32.5l-65 -39l-15 37l181 104q20 -20 32.5 -46.5t12.5 -59.5v-599t1 -407t0 -253 t0 -138t1 -63.5v-28.5q-82 -72 -147.5 -156t-104.5 -172q-59 12 -117.5 48t-104.5 91t-73 126t-21 155q45 -117 123 -186.5t205 -69.5q39 0 61.5 17.5t33 50t11.5 79.5t1 109l-2 117q-27 -18 -60 -41t-64.5 -46.5t-57 -43t-38.5 -31.5q-4 -2 -10 -2q-29 0 -63.5 23.5 t-68.5 57t-61.5 70.5t-39.5 64l-4 4l6 4q6 6 12 10t10 8q96 82 130 180.5t34 217.5q0 205 -42 405.5t-111 394.5l-95 -59zM256 2003l137 -96q-10 -70 -23.5 -137.5t-27.5 -134.5l-31 -11zM422 2003l139 -96q-16 -68 -29.5 -136.5t-25.5 -135.5l-27 -11z" />
<glyph unicode="&#x2c6;" d="M43 1260l250 198h4l250 -198l-31 -11q-57 23 -112.5 43.5t-110.5 42.5q-53 -23 -107.5 -43t-111.5 -43z" />
<glyph unicode="&#x2dc;" horiz-adv-x="579" d="M121 1268q12 14 28.5 34.5t37 40t43 34t44.5 14.5q29 0 46.5 -15.5t29.5 -35t25.5 -35t36.5 -15.5q31 0 49 24.5t37 49.5l16 -31q-23 -45 -63.5 -87t-83.5 -42q-27 0 -41.5 17.5t-26.5 37t-25.5 37t-35.5 17.5q-31 0 -57.5 -25.5t-47.5 -48.5z" />
<glyph unicode="&#x2000;" horiz-adv-x="1001" />
<glyph unicode="&#x2001;" horiz-adv-x="2003" />
<glyph unicode="&#x2002;" horiz-adv-x="1001" />
<glyph unicode="&#x2003;" horiz-adv-x="2003" />
<glyph unicode="&#x2004;" horiz-adv-x="667" />
<glyph unicode="&#x2005;" horiz-adv-x="500" />
<glyph unicode="&#x2006;" horiz-adv-x="333" />
<glyph unicode="&#x2007;" horiz-adv-x="333" />
<glyph unicode="&#x2008;" horiz-adv-x="250" />
<glyph unicode="&#x2009;" horiz-adv-x="400" />
<glyph unicode="&#x200a;" horiz-adv-x="111" />
<glyph unicode="&#x2010;" horiz-adv-x="364" d="M70 348v119l245 170v-119zM70 590v119l245 170v-119z" />
<glyph unicode="&#x2011;" horiz-adv-x="364" d="M70 348v119l245 170v-119zM70 590v119l245 170v-119z" />
<glyph unicode="&#x2012;" horiz-adv-x="364" d="M70 348v119l245 170v-119zM70 590v119l245 170v-119z" />
<glyph unicode="&#x2013;" horiz-adv-x="616" d="M70 555v119h487v-119h-487z" />
<glyph unicode="&#x2014;" horiz-adv-x="927" d="M70 555v119h811v-119h-811z" />
<glyph unicode="&#x2018;" horiz-adv-x="231" d="M-43 1141q25 121 80 227.5t153 171.5q6 -8 17 -10q-63 -61 -97 -136t-51 -157l80 -96l-92 -111z" />
<glyph unicode="&#x2019;" horiz-adv-x="231" d="M-43 1040q63 61 97 136t50 157l-79 97l92 110l90 -110q-25 -121 -80 -227.5t-154 -172.5q-8 6 -16 10z" />
<glyph unicode="&#x201a;" horiz-adv-x="231" d="M-43 -291q63 61 97 136t50 157l-79 96l92 111l90 -111q-25 -121 -80 -227.5t-154 -171.5q-8 6 -16 10z" />
<glyph unicode="&#x201c;" horiz-adv-x="499" d="M-29 1141q25 121 80 227.5t154 171.5q6 -8 16 -10q-63 -61 -97 -136t-50 -157l80 -96l-93 -111zM209 1141q25 121 80 227.5t153 171.5q6 -8 17 -10q-63 -61 -97 -136t-51 -157l80 -96l-92 -111z" />
<glyph unicode="&#x201d;" horiz-adv-x="499" d="M-29 1040q63 61 97 136t51 157l-80 97l92 110l90 -110q-25 -121 -80 -227.5t-153 -172.5q-8 6 -17 10zM209 1040q63 61 97 136t50 157l-80 97l93 110l90 -110q-25 -121 -80 -227.5t-154 -172.5q-8 6 -16 10z" />
<glyph unicode="&#x201e;" horiz-adv-x="499" d="M-29 -291q63 61 97 136t51 157l-80 96l92 111l90 -111q-25 -121 -80 -227.5t-153 -171.5q-8 6 -17 10zM209 -291q63 61 97 136t50 157l-80 96l93 111l90 -111q-25 -121 -80 -227.5t-154 -171.5q-8 6 -16 10z" />
<glyph unicode="&#x2022;" horiz-adv-x="778" d="M72 662q0 59 96 94q57 20 80 49q27 20 63 106q31 70 80 70q59 0 94 -96q20 -59 50 -80q20 -27 106 -60q70 -26 70 -83q0 -53 -68 -80q-92 -41 -108 -64q-27 -20 -60 -106q-27 -70 -84 -70q-53 0 -80 68q-41 92 -63 108q-14 16 -105 64q-72 35 -71 80z" />
<glyph unicode="&#x2026;" horiz-adv-x="694" d="M25 98l92 111l90 -111l-90 -108zM256 98l92 111l90 -111l-90 -108zM487 98l93 111l90 -111l-90 -108z" />
<glyph unicode="&#x202f;" horiz-adv-x="400" />
<glyph unicode="&#x2039;" horiz-adv-x="485" d="M78 440q10 18 56 63.5t100.5 92.5t100.5 85t54 40l17 -16q-8 -33 -24.5 -68t-37 -70t-41.5 -67.5t-35 -63.5q14 -31 36 -66.5t41.5 -72.5t34.5 -74t19 -71l-14 -13q-10 4 -34.5 23.5t-56.5 49.5t-68 64.5t-66.5 66.5t-53 58.5t-28.5 38.5z" />
<glyph unicode="&#x203a;" horiz-adv-x="485" d="M80 156q2 12 20.5 50t41 81t44 83t29.5 54q-33 70 -71 140.5t-60 144.5l14 12q14 -4 59.5 -44t97.5 -91t96 -98.5t57 -67.5q-6 -10 -31 -35t-57.5 -55.5t-70.5 -63.5t-71 -60.5t-56.5 -46t-27.5 -20.5z" />
<glyph unicode="&#x205f;" horiz-adv-x="500" />
<glyph unicode="&#x20ac;" horiz-adv-x="2048" />
<glyph unicode="&#x2122;" horiz-adv-x="1284" d="M80 809q23 29 41 55.5t67 26.5q29 0 62 -5t65.5 -11.5t64.5 -11.5t58 -5q25 0 43.5 8t22.5 25l18 -2q-14 -18 -25.5 -35.5t-23.5 -33t-27.5 -25t-33.5 -9.5t-52 7.5t-72 15.5t-75 15t-63 7q-27 0 -31 -10t-23 -20zM109 1411q2 18 12 38.5t27.5 39t41 31t52.5 12.5 t62.5 -5t68.5 -12.5t68.5 -12.5t62.5 -5q23 0 30 5t17 20l18 -4q-12 -16 -21 -33t-19.5 -30t-22.5 -21.5t-31 -8.5q-18 0 -54 6.5t-78 13.5t-82 13t-66 6q-39 0 -50.5 -20.5t-9.5 -40.5zM215 1309l129 112l23 -2l-91 -80q-2 -47 17.5 -89t41 -84t39 -88t11.5 -103 q-10 -4 -26.5 -15.5t-34 -23.5t-30.5 -25.5t-20 -19.5l-8 10q0 2 6.5 7t13.5 11.5t14 12.5t7 8q12 55 -2 99t-35.5 86t-40 85t-14.5 99zM551 1468l115 62q12 -10 25.5 -26.5t13.5 -33.5l2 -28l159 88q12 -10 24.5 -26.5t12.5 -33.5l2 -28q33 14 55.5 30.5t41 28.5t34 19.5 t35.5 7.5q25 -2 45.5 -15.5t34.5 -32t23.5 -37t13.5 -28.5q-55 -18 -76.5 -59t-15.5 -96l2 -388q0 -6 2 -17t6 -19l35 16l6 -10l-103 -49q-27 16 -26 49v422q0 35 24.5 69.5t77.5 63.5q-10 10 -21.5 27.5t-28.5 30.5t-40.5 17.5t-60.5 -14.5l-64 -33v-553q0 -6 3 -17t7 -19 l35 16l4 -10l-100 -49q-10 8 -18.5 21t-8.5 28v600q0 8 -5 19.5t-15 15.5l-100 -52v-473q0 -23 -9.5 -43t-44.5 -37q8 -23 27.5 -33t36.5 -1l28 14l7 -10q-16 -8 -44 -22.5t-51 -26.5h-4q-35 8 -49 24.5t-26 38.5q35 18 45 51q4 6 4 14.5v18.5v502q0 10 -6.5 21.5 t-12.5 13.5l-49 -21z" />
<glyph unicode="&#x25fc;" horiz-adv-x="1157" d="M0 0v1157h1157v-1157h-1157z" />
<glyph unicode="&#xfb01;" horiz-adv-x="643" d="M-78 -289q37 18 64.5 50t46 70t28 80t9.5 81v1085h-93v37h93v213q0 14 -2 34.5t-13 31.5l-22 -13l-4 27l270 158q12 -37 25.5 -69t29.5 -69l-108 -51q-10 27 -18.5 51.5t-16.5 51.5l-23 -13v-352h258l29 19q23 -10 36 -34t13 -52v-918q0 -20 18.5 -28.5t35.5 -8.5 q18 0 38 10l7 -20l-109 -102q-41 8 -84 35.5t-65 64.5q10 6 25.5 16t15.5 25v876q0 14 -7.5 30.5t-46.5 51.5l-164 -2v-1081q0 -47 -24.5 -95t-63.5 -91t-86 -74t-90 -41zM383 1593l139 -96q-10 -70 -23.5 -137.5t-27.5 -134.5l-31 -11z" />
<glyph unicode="&#xfb02;" horiz-adv-x="598" d="M-78 -289q37 18 64.5 50t46 70t28 80t9.5 81v1085h-93v37h93v213q0 14 -2 34.5t-13 31.5l-22 -13l-4 27l270 158q4 -27 14.5 -47.5t22.5 -40t25.5 -38t21.5 -42.5q23 49 66 85t100 36q51 0 92 -29t68 -70l-13 -18q-25 23 -56.5 41t-66.5 18q-39 0 -60 -22.5t-32.5 -56 t-13.5 -70.5t-2 -64v-1122q0 -16 19.5 -23.5t31.5 -7.5q20 0 41 10l6 -20l-112 -102q-39 8 -82 17t-64 44q10 6 25.5 17.5t15.5 25.5v1214q0 20 -2 53t-12 64l-86 -41q-10 27 -18.5 51.5t-16.5 51.5l-23 -13v-352h134v-37h-134v-1081q0 -47 -24.5 -95t-63.5 -91t-86 -74 t-90 -41z" />
<glyph unicode="&#xfb03;" horiz-adv-x="960" d="M-78 -289q37 18 64.5 50t46 70t28 80t9.5 81v1085h-93v37h93v213q0 14 -2 34.5t-13 31.5l-22 -13l-4 27l270 158q12 -37 25.5 -69t29.5 -69l-108 -51q-10 27 -18.5 51.5t-16.5 51.5l-23 -13v-352h199v213q0 14 -2 34.5t-12 31.5l-23 -13l-4 27l270 158q12 -37 25.5 -69 t30.5 -69l-109 -51q-10 27 -18 51.5t-17 51.5l-22 -13v-352h258l29 19q23 -10 36 -34t13 -52v-918q0 -20 18.5 -28.5t34.5 -8.5q18 0 39 10l6 -20l-109 -102q-41 8 -83.5 35.5t-65.5 64.5q10 6 25.5 16t15.5 25v876q0 14 -2 27.5t-10 24.5l-19 -13l-10 25l25 16h-201v-1081 q0 -47 -24.5 -95t-63.5 -91t-86 -74t-90 -41l-2 16q37 18 64.5 50t46 70t27.5 80t9 81v1085h-199v-1081q0 -47 -24.5 -95t-63.5 -91t-86 -74t-90 -41zM700 1593l140 -96q-10 -70 -23.5 -137.5t-28.5 -134.5l-30 -11z" />
<glyph unicode="&#xfb04;" horiz-adv-x="946" d="M-78 -289q37 18 64.5 50t46 70t28 80t9.5 81v1085h-93v37h93v213q0 14 -2 34.5t-13 31.5l-22 -13l-4 27l270 158q10 -33 28.5 -73t34.5 -75l254 148q2 -29 19.5 -48.5t39 -38t41 -38t27.5 -43.5q12 25 22.5 46t24 38.5t33 27t47.5 9.5q51 0 111.5 -29t87.5 -70l-12 -18 q-25 23 -56.5 41t-66.5 18q-39 0 -60.5 -22.5t-33 -56t-13.5 -70.5t-2 -64v-1122q0 -16 20 -23.5t32 -7.5q20 0 41 10l6 -20l-113 -102q-39 8 -82 17t-63 44q10 6 25.5 17.5t15.5 25.5v1214q0 20 -2.5 54.5t-12.5 62.5l-96 -53q-10 27 -34.5 57.5t-33.5 57.5l-22 -13v-352 h133v-37h-133v-1081q0 -47 -24.5 -95t-63.5 -91t-86 -74t-90 -41l-2 16q37 18 64.5 50t46 70t27.5 80t9 81v1085h-199v-1081q0 -47 -24.5 -95t-63.5 -91t-86 -74t-90 -41zM188 1114h199v213q0 14 -2 34.5t-12 31.5l-109 -50q-10 27 -27.5 68t-25.5 68l-23 -13v-352z" />
</font>
</defs>
</svg>
